<?xml version="1.0" standalone="no"?>
<!DOCTYPE svg PUBLIC "-//W3C//DTD SVG 1.1//EN" "http://www.w3.org/Graphics/SVG/1.1/DTD/svg11.dtd" >
<svg xmlns="http://www.w3.org/2000/svg">
<metadata></metadata>
<defs>
<font id="ContextCondensedSSiBdCn" horiz-adv-x="1024" >
<font-face units-per-em="2048" ascent="1638" descent="-410" />
<missing-glyph horiz-adv-x="512" />
<glyph horiz-adv-x="0" />
<glyph horiz-adv-x="0" />
<glyph unicode="&#xd;" horiz-adv-x="0" />
<glyph unicode=" "  horiz-adv-x="512" />
<glyph unicode="&#x09;" horiz-adv-x="512" />
<glyph unicode="&#xa0;" horiz-adv-x="512" />
<glyph unicode="!" horiz-adv-x="682" d="M207 1116v436h266v-436q2 -29 2 -113.5t-11 -210.5t-19.5 -215t-14.5 -176h-174q-5 99 -27 318t-22 397zM209 0v272h266v-272h-266z" />
<glyph unicode="&#x22;" horiz-adv-x="682" d="M33 969v559h243v-559h-243zM408 969v559h243v-559h-243z" />
<glyph unicode="#" d="M63 481v203h201l23 190h-172v203h194l56 449h170l-54 -449h150l53 449h176l-55 -449h156v-203h-181l-22 -190h153v-203h-176l-59 -481h-174l57 481h-147l-60 -481h-172l58 481h-175zM436 684h146l24 190h-147z" />
<glyph unicode="$" d="M68 410q2 24 2 49h245q2 -110 6.5 -149t32 -78t90.5 -56v461q-114 77 -161.5 112.5t-94.5 91.5q-98 119 -98 306q0 206 151 313q79 56 197 70v131h140v-131q160 -19 244 -96t89 -189q1 -21 5 -64t4 -67h-238q0 93 -22.5 142t-90.5 67v-412q271 -134 353 -328 q30 -71 30 -149q0 -215 -86 -325t-288 -140v-225h-140v219q-193 17 -281.5 135t-88.5 312zM336 1164q0 -65 25 -105t83 -105v369q-51 -7 -79.5 -50.5t-28.5 -108.5zM569 176q123 37 123 195q0 91 -66 171q-27 33 -57 52v-418z" />
<glyph unicode="%" horiz-adv-x="1706" d="M63 1159.5q0 105.5 19.5 183.5t88.5 128.5t207.5 50.5t207.5 -50.5t88.5 -128.5t19.5 -198.5t-19 -199t-88.5 -129t-191.5 -50.5t-187 30t-96.5 83t-40 114t-8.5 166.5zM260 1162.5q0 -104.5 6 -148.5q13 -99 115 -99q80 0 98.5 51.5t18.5 177.5t-18.5 177t-99.5 51 t-100.5 -52.5t-19.5 -157zM428 -31l688 1583h144l-687 -1583h-145zM1016 379q0 91 8.5 152t40 114t94.5 83t186 30t193 -50.5t88.5 -129.5t18.5 -183.5t-8.5 -167t-38.5 -115.5q-66 -112 -269 -112q-197 0 -265 113q-31 53 -39.5 114t-8.5 152zM1212 379q0 -87 6 -131 q12 -96 113 -96q80 0 98.5 50.5t18.5 157t-6 150.5q-12 96 -111 96q-101 0 -113 -96q-6 -44 -6 -131z" />
<glyph unicode="&#x26;" horiz-adv-x="1366" d="M129 419.5q0 119.5 35 207t96.5 154t159.5 137.5q-82 143 -101.5 211t-19.5 124q0 116 51 191q98 145 303 145q84 0 157.5 -39t120 -113.5t46.5 -170.5q0 -239 -234 -387l193 -336q40 125 47 282h227q0 -287 -135 -522l185 -309h-308l-55 102q-75 -73 -160.5 -103 t-200 -30t-208 62t-146.5 168.5t-53 226zM397 434q15 -95 69 -166t141.5 -71t180.5 84l-247 428q-29 -11 -63 -47q-81 -89 -81 -228zM545 1290q0 -42 13.5 -77.5t36 -78t32.5 -63.5q118 93 118 189q0 52 -31 86t-72 35t-69 -24t-28 -67z" />
<glyph unicode="'" horiz-adv-x="512" d="M135 969v559h244v-559h-244z" />
<glyph unicode="(" horiz-adv-x="682" d="M106 629q0 538 300 960h165q-68 -134 -109 -267q-85 -276 -85 -777q0 -378 77 -635q41 -140 121 -320h-169q-170 294 -232 496q-68 221 -68 543z" />
<glyph unicode=")" horiz-adv-x="682" d="M106 1589h170q174 -299 233 -495q66 -220 66 -543q0 -552 -299 -961h-165q67 132 109 266q85 278 85 779q0 286 -31.5 443t-70 268.5t-97.5 242.5z" />
<glyph unicode="*" d="M162 1206l49 158l182 -59q26 -7 37 -13q-2 13 -2 41v193h164v-193q0 -24 -2 -37q9 3 43 15l176 61l55 -162l-184 -55q-24 -8 -37 -8q21 -26 29 -39l110 -154l-135 -100l-110 160q-14 20 -19 30q-2 -6 -24 -38l-111 -154l-135 98l112 156q11 16 23 29q-16 7 -41 14z" />
<glyph unicode="+" d="M53 401v228h346v389h226v-389h348v-228h-348v-401h-226v401h-346z" />
<glyph unicode="," horiz-adv-x="682" d="M207 0v272h270v-266q0 -270 -270 -305v90q69 7 106 62.5t37 146.5h-143z" />
<glyph unicode="-" horiz-adv-x="682" d="M98 528v238h488v-238h-488z" />
<glyph unicode="." horiz-adv-x="682" d="M207 0v272h270v-272h-270z" />
<glyph unicode="/" horiz-adv-x="569" d="M-23 -195l484 1747h178l-483 -1747h-179z" />
<glyph unicode="0" d="M98 416v696q0 239 105.5 343t310.5 104t306 -100q108 -107 108 -347v-696q0 -346 -238 -422q-76 -25 -178 -25q-203 0 -308.5 104t-105.5 343zM385 416q0 -125 33 -172t82.5 -47t77.5 18q63 39 63 201v696q0 123 -34.5 170t-95 47t-93.5 -47t-33 -170v-696z" />
<glyph unicode="1" d="M90 1075v207q167 2 275 61.5t147 208.5h211v-1552h-287v1075h-346z" />
<glyph unicode="2" d="M66 0q4 137 22 244t81.5 213t190.5 241l140 150q54 59 82 96q59 77 59 203q0 182 -137 182q-107 0 -133 -76q-23 -60 -23 -219h-268v43q0 117 23.5 218t119.5 182.5t293 81.5q184 0 297 -107q115 -109 115 -295q0 -241 -183 -424l-225 -237q-147 -154 -149 -269h534v-227 h-839z" />
<glyph unicode="3" d="M57 424v90h269q3 -160 16 -209q29 -108 145 -108q72 0 105.5 40t41 98t7.5 168.5t-34 151t-100 50.5t-157 10v229q40 2 67 3q151 6 183 92q18 46 18 118q0 172 -137 172q-132 0 -137 -121v-110h-268q0 25 -2 49q0 267 179 363q91 49 226 49q212 0 315 -104.5t103 -295.5 q0 -116 -49.5 -211t-151.5 -110v-4q145 -19 202 -180q30 -83 30 -197q0 -488 -447 -488q-182 0 -275.5 73t-121 172t-27.5 210z" />
<glyph unicode="4" d="M47 315v228l465 983h319v-983h132v-228h-132v-315h-286v315h-498zM258 543h287v628h-4z" />
<glyph unicode="5" d="M76 487h268q3 -138 16 -184q27 -100 127 -106q79 0 114 46t41.5 105t8.5 174v45q0 150 -41 205t-108.5 55t-109.5 -32t-48 -82h-254l39 813h739v-228h-518l-18 -329q51 49 101 67.5t146 18.5t174.5 -47t117.5 -124q67 -132 67 -387t-95.5 -391.5t-328.5 -136.5 q-172 0 -267 54.5t-133 166.5t-38 297z" />
<glyph unicode="6" d="M86 559v373q0 240 46.5 377.5t143.5 193.5t232 56t220 -37q181 -77 181 -314h-266q-2 55 -24 88t-99 33q-73 -5 -105.5 -52.5t-37.5 -96t-8 -140.5v-98q49 51 92.5 76.5t148.5 25.5t182 -55q148 -106 148 -430q0 -205 -38 -333t-130.5 -192.5t-256.5 -64.5t-259 69.5 t-132.5 199t-37.5 321.5zM373 492q0 -97 9 -158q18 -137 138 -137q106 2 124 107q9 48 9 132v158q0 102 -26.5 162.5t-102 60.5t-106.5 -40t-38 -95.5t-7 -142.5v-47z" />
<glyph unicode="7" d="M66 1298v228h864v-209q-186 -342 -287 -750q-76 -290 -90 -567h-295q17 228 78 452.5t166 495.5q89 220 176 350h-612z" />
<glyph unicode="8" d="M84 462.5q0 145.5 48 235t167 142.5q-66 35 -104 76q-76 82 -76 284q0 89 41 171.5t129.5 135t212 52.5t196.5 -25t120 -75q89 -96 89 -300q0 -172 -75 -249q-43 -44 -119 -76q127 -27 178 -121t51 -267t-50 -278q-94 -199 -370 -199q-346 0 -416 263q-22 85 -22 230.5z M371 430q0 -83 8 -128q18 -103 137 -105q63 4 94.5 39t38 84.5t6.5 136t-8 143.5q-18 129 -135 129q-93 -1 -117 -61t-24 -189v-49zM385 1135.5q0 -90.5 25 -145t104.5 -54.5t103 61t23.5 160q0 172 -123 172q-75 0 -104 -51.5t-29 -142z" />
<glyph unicode="9" d="M86 969q0 205 38.5 332.5t131.5 192.5t257 65t258.5 -69.5t131.5 -197t37 -323.5v-373q0 -357 -106 -497q-53 -71 -134.5 -100.5t-198 -29.5t-201.5 36q-181 77 -181 314h266q2 -37 9 -61q19 -61 116 -61q57 0 89 30t43 72q14 53 17 186v101q-47 -51 -77 -69 q-60 -36 -164 -36t-182 55q-150 105 -150 433zM373 934q0 -102 26.5 -163.5t116.5 -61.5t113.5 73t23.5 207v45q0 105 -8 162q-18 133 -139 133q-106 -2 -124 -107q-9 -48 -9 -132v-156z" />
<glyph unicode=":" horiz-adv-x="569" d="M150 0v272h270v-272h-270zM150 877v274h270v-274h-270z" />
<glyph unicode=";" horiz-adv-x="569" d="M150 0v272h270v-266q0 -270 -270 -305v90q69 7 106 62.5t37 146.5h-143zM150 877v274h270v-274h-270z" />
<glyph unicode="&#x3c;" d="M86 416v205l854 469v-230l-608 -346l608 -334v-229z" />
<glyph unicode="=" d="M53 199v227h920v-227h-920zM53 602v227h920v-227h-920z" />
<glyph unicode="&#x3e;" d="M86 -49v229l608 334l-608 346v230l854 -469v-205z" />
<glyph unicode="?" d="M104 1188q0 201 104.5 301t297.5 100q247 0 347 -181q48 -87 48 -184.5t-15 -153.5q-25 -92 -126 -224q-42 -46 -74 -82.5t-68 -75.5q-73 -91 -73 -272h-240q0 206 37 283t106 162t103 131t50.5 90t16.5 129.5t-27 124t-81.5 38.5t-80.5 -10.5t-40 -36.5t-18.5 -55 t-6.5 -68t-4 -59h-254q0 21 -2 43zM301 0v268h260v-268h-260z" />
<glyph unicode="@" horiz-adv-x="1706" d="M78 782q0 168 61.5 316t172.5 258t260.5 171.5t306.5 61.5q311 0 512 -174q237 -206 237 -478t-164 -443q-66 -67 -174 -124t-194 -57q-36 0 -63 27.5t-27 75.5q0 10 4 30q-136 -124 -249 -124t-191.5 50t-120 136t-41.5 186t30.5 189.5t88.5 159.5q125 151 306.5 151 t268.5 -127l22 111h201l-108 -637q0 -27 8.5 -36t31.5 -9q25 7 67 47t69.5 81t50.5 112.5t24 137.5q0 174 -74 302t-206 194t-311 66t-326.5 -84.5t-230 -234.5t-82.5 -340t90 -342.5t245.5 -235t357.5 -82.5t408 188h197q-157 -220 -388 -301q-116 -41 -245 -41 q-224 0 -414.5 107t-300.5 296t-110 416zM633 739q0 -103 40 -159.5t105 -67.5q114 0 179.5 79t74.5 175q0 235 -168 235q-93 -7 -159 -83.5t-72 -178.5z" />
<glyph unicode="A" horiz-adv-x="1139" d="M18 0l367 1552h387l348 -1552h-307l-76 393h-336l-75 -393h-308zM446 621h246l-78 440q-10 49 -20.5 158.5t-18.5 160.5h-4q-7 -60 -17.5 -163t-21.5 -156z" />
<glyph unicode="B" horiz-adv-x="1139" d="M133 0v1552h463q116 0 193 -21.5t127 -85t65.5 -128.5t15.5 -170.5t-38.5 -189t-145.5 -123.5v-5q223 -30 223 -360q0 -111 -20 -190q-63 -196 -202 -251q-72 -28 -175 -28h-506zM420 227h125q72 0 108 17q88 39 88 215q0 133 -41.5 185t-169.5 52h-110v-469zM420 924h53 q75 0 125.5 9.5t79.5 45.5q31 43 31 152t-31 149t-125 43h-133v-399z" />
<glyph unicode="C" horiz-adv-x="1139" d="M113 678v221q6 182 22.5 296.5t64.5 204.5q103 189 414 189q390 -6 420 -401q6 -58 6 -119h-282q-5 51 -9.5 99.5t-16.5 89.5q-27 98 -118 98q-127 0 -166.5 -95.5t-39.5 -238.5v-487q0 -141 38.5 -239.5t167.5 -98.5q100 0 128 130q13 64 18 226h289q-2 -34 -7 -90 q-12 -235 -107.5 -367.5t-320.5 -132.5q-322 0 -423 195q-48 93 -63 215t-15 305z" />
<glyph unicode="D" horiz-adv-x="1251" d="M147 0v1552h598q124 0 227 -90q88 -78 121 -214q33 -137 33 -376.5t-12 -379t-63.5 -263.5t-159.5 -188q-74 -41 -213 -41h-531zM434 227h125q128 0 184.5 52t72 169.5t15.5 338t-17 328.5t-62 158t-129 50h-189v-1096z" />
<glyph unicode="E" d="M131 0v1552h807v-229h-520v-389h479v-229h-479v-478h520v-227h-807z" />
<glyph unicode="F" d="M150 0v1552h813v-229h-527v-391h494v-230h-494v-702h-286z" />
<glyph unicode="G" horiz-adv-x="1251" d="M113 678v221q6 182 22.5 296.5t64.5 204.5q103 189 414 189q200 -2 318 -74t164 -262q11 -49 12 -108.5t2 -79.5h-287q-2 96 -15 154q-29 130 -194 137q-127 0 -166.5 -95.5t-39.5 -238.5v-487q0 -141 38.5 -239.5t167.5 -98.5q211 0 211 409h-198v228h477v-834h-215v178 h-4q-72 -200 -271 -215q-322 0 -423 195q-48 93 -63 215t-15 305z" />
<glyph unicode="H" horiz-adv-x="1251" d="M139 0v1552h287v-614h401v614h287v-1552h-287v709h-401v-709h-287z" />
<glyph unicode="I" horiz-adv-x="569" d="M141 0v1552h287v-1552h-287z" />
<glyph unicode="J" horiz-adv-x="909" d="M14 412q0 53 2 80h287v-193q4 -102 92 -102q70 0 87.5 39.5t17.5 123.5v1192h286v-1181q0 -102 -15.5 -175t-70.5 -133.5t-140 -80t-188 -19.5q-210 0 -315 160q-43 70 -43 289z" />
<glyph unicode="K" horiz-adv-x="1139" d="M139 0v1552h287v-690h4q41 110 100.5 222.5t79.5 150.5l168 317h324l-379 -667l397 -885h-323l-271 612l-100 -168v-444h-287z" />
<glyph unicode="L" d="M139 0v1552h287v-1325h532v-227h-819z" />
<glyph unicode="M" horiz-adv-x="1593" d="M137 0v1552h457l154 -721q31 -152 53 -358h4q24 255 45 358l154 721h454v-1552h-287v487q0 511 25 926h-4l-307 -1413h-174l-301 1413h-11q25 -407 25 -926v-487h-287z" />
<glyph unicode="N" horiz-adv-x="1251" d="M139 0v1552h297l223 -565q109 -265 205 -616h4q-43 607 -43 876v305h287v-1552h-299l-223 553q-104 251 -205 616h-4q45 -567 45 -878v-291h-287z" />
<glyph unicode="O" horiz-adv-x="1251" d="M125 678v221q6 182 22.5 296.5t64.5 204.5q103 189 415 189q313 0 415 -190q47 -89 63.5 -203.5t22.5 -296.5v-221q0 -248 -30.5 -394.5t-139 -233.5t-304.5 -87t-298.5 51t-151.5 144t-64 215t-15 305zM420 535q0 -88 12.5 -160t58.5 -125t136 -53q135 0 171 100t36 262 v397q0 170 -37.5 285t-167.5 115t-169.5 -95.5t-39.5 -238.5v-487z" />
<glyph unicode="P" horiz-adv-x="1139" d="M139 0v1552h586q129 0 209 -62q149 -115 149 -380q0 -255 -143 -367q-116 -94 -322 -94h-192v-649h-287zM426 877h154q101 0 154.5 55t53.5 164t-23.5 153t-72 59t-135.5 15h-131v-446z" />
<glyph unicode="Q" horiz-adv-x="1251" d="M125 678v221q6 182 22.5 296.5t64.5 204.5q103 189 415 189q313 0 415 -190q47 -89 63.5 -203.5t22.5 -296.5v-221q0 -187 -17 -317.5t-67 -210.5l158 -160l-145 -137l-160 157q-98 -47 -268.5 -47t-273 51t-151.5 144t-64 215t-15 305zM420 535q0 -88 12.5 -160 t58.5 -125t136 -53q40 0 73 10l-55 53l156 133l14 -14q16 75 16 156l3 430v57q0 91 -13.5 161t-58.5 121.5t-135 51.5q-128 0 -167.5 -95.5t-39.5 -238.5v-487z" />
<glyph unicode="R" horiz-adv-x="1251" d="M135 0v1552h543q203 0 319.5 -86t116.5 -286q0 -150 -51.5 -253.5t-183.5 -121.5v-4q158 -23 201 -145q20 -60 20 -136v-67q0 -384 61 -424v-29h-315q-26 94 -28 230.5t-3.5 203.5t-17.5 131t-74 81q-79 22 -250 22h-51v-668h-287zM422 895h225q75 5 121.5 59t46.5 169.5 t-44.5 156.5t-135.5 43h-213v-428z" />
<glyph unicode="S" horiz-adv-x="1139" d="M100 434v115h287v-92q0 -128 42 -194t138 -66q178 0 178 182q0 125 -114 205q-44 35 -152.5 106.5t-178 126t-122.5 125.5q-74 110 -74 240t50 222q100 185 401 185q161 0 255 -53.5t134 -134t48.5 -156.5t8.5 -166h-276q0 87 -11 145q-23 132 -157 132q-158 0 -158 -146 q0 -78 38.5 -121.5t131.5 -102.5q244 -157 329.5 -239.5t113.5 -156.5t28 -180q0 -215 -128.5 -331t-359 -116t-341.5 125t-111 346z" />
<glyph unicode="T" d="M35 1323v229h956v-229h-334v-1323h-286v1323h-336z" />
<glyph unicode="U" horiz-adv-x="1251" d="M139 469v1083h287v-1058q0 -142 37 -219.5t165 -77.5t163.5 76.5t35.5 220.5v1058h287v-1083q0 -177 -44 -287t-150 -164.5t-269.5 -54.5t-257.5 31t-149 93q-105 117 -105 382z" />
<glyph unicode="V" horiz-adv-x="1139" d="M43 1552h307l180 -995q21 -109 29 -195.5t13.5 -127.5t5.5 -70h4q0 23 5.5 69t13 130.5t28.5 193.5l162 995h307l-332 -1552h-383z" />
<glyph unicode="W" horiz-adv-x="1706" d="M49 1552h297l129 -847q25 -156 36 -295t15 -213h4q6 50 14.5 135.5t17.5 165.5q18 163 34 252l139 802h238l153 -802q22 -104 40.5 -303.5t23.5 -249.5h4q6 50 16.5 193.5t36.5 314.5l115 847h297l-285 -1552h-344l-115 612q-23 135 -37 273.5t-24 220.5h-4 q-7 -62 -14.5 -133.5t-13.5 -122.5q-14 -132 -34 -238l-102 -612h-344z" />
<glyph unicode="X" horiz-adv-x="1139" d="M23 0l376 786l-362 766h321l156 -352q53 -125 55 -194h6q6 76 42.5 160.5t52.5 121.5l110 264h324l-369 -766l381 -786h-328l-163 379q-40 91 -60 196h-4q-8 -69 -32 -132.5t-66 -157.5l-127 -285h-313z" />
<glyph unicode="Y" horiz-adv-x="1139" d="M25 1552h313l162 -407q52 -135 67 -240h4q16 96 43.5 166.5t51.5 128.5l137 352h313l-405 -893v-659h-287v659z" />
<glyph unicode="Z" d="M68 0v231l493 963q54 104 80 135q-37 -6 -111 -6h-430v229h840v-233l-494 -961q-16 -30 -26 -50q-22 -48 -53 -87q36 6 110 6h481v-227h-890z" />
<glyph unicode="[" horiz-adv-x="682" d="M166 -195v1747h407v-157h-182v-1432h182v-158h-407z" />
<glyph unicode="\" horiz-adv-x="512" d="M-182 1552h217l661 -1552h-217z" />
<glyph unicode="]" horiz-adv-x="682" d="M109 -37h182v1432h-182v157h407v-1747h-407v158z" />
<glyph unicode="^" d="M20 772l369 780h246l369 -780l-213 -98l-279 577l-279 -577z" />
<glyph unicode="_" d="M0 -127h1024v-119h-1024v119z" />
<glyph unicode="`" horiz-adv-x="682" d="M2 1604h317l193 -304h-207z" />
<glyph unicode="a" d="M86 320.5q0 122.5 51 199t125 116.5t182 86t141 79.5t33 67.5t-7 66t-36 44t-100.5 12t-99 -41.5t-27.5 -128.5h-254q0 185 85 281t319 96q168 0 252 -50.5t106.5 -123t22.5 -172.5v-688q0 -81 22 -164h-252q-16 37 -16 121h-4q-96 -152 -234 -152q-213 0 -277 151 q-32 78 -32 200.5zM352 340.5q0 -86.5 28 -125.5t89.5 -39t92 31.5t39 75.5t9.5 110.5t2 93.5v127q-33 -22 -76 -50q-99 -64 -141.5 -100.5t-42.5 -123z" />
<glyph unicode="b" d="M131 0v1552h266v-372q0 -23 -6 -131h4q40 82 95.5 115.5t142.5 33.5q138 -3 205 -93.5t71 -320.5v-422q-6 -171 -65 -282t-211 -111q-117 6 -179 66q-36 34 -65 90h-4v-125h-254zM397 383q0 -207 129 -207q106 0 117 201v389q-6 120 -17 155q-23 70 -104.5 70t-103 -73.5 t-21.5 -184.5v-350z" />
<glyph unicode="c" horiz-adv-x="909" d="M98 406v378q0 296 172 376q80 38 197.5 38t199.5 -48q156 -90 156 -296v-92h-266v129q-6 100 -92 100q-84 0 -95 -117q-5 -52 -5 -143v-334q0 -163 41 -197q21 -19 59 -24q54 1 69 39.5t23 132.5v107h266v-107q0 -254 -153 -336q-82 -43 -211 -43q-178 0 -269.5 102.5 t-91.5 334.5z" />
<glyph unicode="d" d="M109 362v422q6 297 128 374q59 38 149 39h6q86 -1 138 -33q54 -34 95 -115h4q-8 45 -8 104v399h266v-1552h-266v125h-5q-36 -85 -89.5 -118t-139.5 -38q-265 0 -278 393zM375 377q11 -201 117 -201q129 0 129 207v350q0 111 -21.5 184.5t-103.5 73.5q-80 0 -101 -63 q-14 -44 -20 -162v-389z" />
<glyph unicode="e" d="M106 459v307q0 285 176 384q87 48 218 48t213.5 -34t124 -100t54.5 -153.5t13 -226.5v-156h-532v-170q1 -106 36 -144t104.5 -38t95.5 51.5t26 167.5h266q0 -210 -88.5 -318t-280.5 -108q-299 0 -382 209q-44 108 -44 281zM373 735h266v101q-2 90 -31 122.5t-97.5 32.5 t-96 -25.5t-34.5 -66t-7 -117.5v-47z" />
<glyph unicode="f" horiz-adv-x="569" d="M43 971v196h102v115q0 105 29 163.5t91 82.5t161 24h100v-217q-50 15 -59 15q-55 0 -55 -47v-136h114v-196h-114v-971h-267v971h-102z" />
<glyph unicode="g" d="M109 360v422q6 299 127 376q59 38 150 39h5q88 0 142 -35q56 -35 83 -115h5v120h266v-1132q0 -206 -89.5 -317t-340.5 -111q-144 0 -235 61.5t-101 200.5h266q0 -68 113 -68q76 0 104.5 49.5t28.5 133.5v135l-4 4q-49 -104 -139 -135q-44 -16 -105 -19 q-153 0 -211.5 109.5t-64.5 281.5zM375 377q11 -201 117 -201q129 0 129 207v350q0 111 -21.5 184.5t-103.5 73.5q-80 0 -101 -63q-14 -44 -20 -162v-389z" />
<glyph unicode="h" d="M125 0v1552h266v-505h4q84 151 240 151q165 0 231 -129q35 -67 35 -170v-899h-266v799q0 97 -21.5 143t-91.5 49q-131 0 -131 -215v-776h-266z" />
<glyph unicode="i" horiz-adv-x="569" d="M152 0v1167h266v-1167h-266zM152 1307v245h266v-245h-266z" />
<glyph unicode="j" horiz-adv-x="569" d="M63 -186q54 0 76.5 10.5t22.5 50.5v1292h266v-1173q2 -48 2 -126q0 -193 -111 -243q-44 -22 -117 -22t-139 4v207zM162 1307v245h266v-245h-266z" />
<glyph unicode="k" horiz-adv-x="909" d="M98 0v1552h267v-702q0 -18 -5 -148h5l251 465h291l-291 -471l283 -696h-297l-166 475l-71 -119v-356h-267z" />
<glyph unicode="l" horiz-adv-x="569" d="M152 0v1552h266v-1552h-266z" />
<glyph unicode="m" horiz-adv-x="1593" d="M135 0v1167h266v-120h5q40 86 104 116.5t132 32.5h15q59 0 109 -14q125 -36 141 -135q41 78 105.5 114.5t160 36.5t159.5 -35q126 -68 126 -213v-950h-266v788q0 63 -8 106q-18 97 -119 97q-80 -4 -107.5 -57.5t-27.5 -165.5v-768h-266v803q0 94 -24 141q-23 47 -93 47 q-1 -1 -2 -1q-72 0 -100 -27t-36 -73.5t-8 -121.5v-768h-266z" />
<glyph unicode="n" d="M125 0v1167h266v-120h4q67 151 240 151q165 0 231 -129q35 -67 35 -170v-899h-266v778q0 98 -21 144t-92 49q-131 0 -131 -215v-756h-266z" />
<glyph unicode="o" d="M110 566q1 180 9.5 277t46.5 182q77 173 350 173q270 0 344 -172q37 -85 46 -194t9 -306.5t-29 -318.5t-115 -179.5t-236 -58.5t-229.5 33t-122.5 102q-43 70 -59 176q-15 100 -14 264v22zM375 381q0 -118 25 -161.5t100 -43.5t104 20.5t37 62t8 122.5v389 q0 110 -22 165.5t-99.5 55.5t-108 -30t-37.5 -74t-7 -117v-389z" />
<glyph unicode="p" d="M119 -391v1558h266v-123h4q36 84 91.5 119t140.5 35q138 -3 205 -95.5t71 -322.5v-422q-6 -171 -65 -280t-211 -109q-87 5 -141.5 36t-102.5 116h-4v-512h-254zM385 383q0 -207 129 -207q106 0 117 201v389q-6 120 -17 155q-23 70 -104.5 70t-103 -73.5t-21.5 -184.5 v-350z" />
<glyph unicode="q" d="M102 362v422q6 231 73 321t204 93q87 0 142 -34t89 -115h4v118h267v-1556h-267v514h-4q-48 -108 -134 -139q-41 -14 -97 -17q-105 0 -165 55q-105 98 -112 338zM369 377q11 -201 116 -201q129 0 129 207v350q0 111 -21.5 184.5t-103.5 73.5q-79 0 -100 -63 q-14 -44 -20 -162v-389z" />
<glyph unicode="r" horiz-adv-x="682" d="M123 0v1167h256v-206h4q45 113 100 159.5t89 56t81 11.5v-320q-18 2 -55 2q-204 0 -209 -196v-674h-266z" />
<glyph unicode="s" horiz-adv-x="909" d="M55 330q0 37 2 55h267q-2 -23 -2 -66t9.5 -74.5t26.5 -46.5q28 -22 83.5 -22t87.5 28t32 72q0 9 -4 29q-3 44 -32.5 69t-98.5 70l-145 103q-147 104 -194 221q-26 64 -26 145q0 136 103.5 210.5t294.5 74.5q370 0 370 -387h-266q0 102 -28.5 141t-86.5 39 q-120 0 -120 -96q0 -56 43 -91q16 -13 57 -42l217 -150q57 -32 116.5 -102.5t64.5 -125.5t5 -81q0 -98 -34.5 -171t-123.5 -118t-207 -45t-203 29.5t-146.5 110t-61.5 221.5z" />
<glyph unicode="t" horiz-adv-x="569" d="M29 971v196h106v320h268v-320h113v-196h-113v-725q4 -24 29 -31.5t84 -7.5v-211q-108 -10 -135 -10q-108 0 -176 42.5t-68 151.5v791h-108z" />
<glyph unicode="u" d="M119 272v895h266v-798q0 -108 27 -156q33 -37 82 -37q81 0 101.5 65t20.5 169v757h267v-1167h-254v174h-4q-59 -203 -248 -205q-192 0 -237 134q-21 65 -21 169z" />
<glyph unicode="v" horiz-adv-x="909" d="M20 1167h287l113 -655q20 -90 37 -344h4q10 224 37 344l114 655h277l-266 -1167h-332z" />
<glyph unicode="w" horiz-adv-x="1366" d="M23 1167h280l94 -712q5 -31 14 -125.5t9 -132.5h4q7 139 27 249l110 721h219l129 -716q20 -112 27 -250h6q0 38 9 132.5t14 125.5l88 708h268l-234 -1167h-290l-88 471q-19 100 -35 295h-8q-6 -139 -27 -279l-82 -487h-297z" />
<glyph unicode="x" horiz-adv-x="909" d="M16 0l306 596l-291 571h313l88 -211q3 -12 10 -34q17 -53 19 -72h4q7 34 33 111l94 206h295l-289 -565l295 -602h-299l-80 188q-43 97 -53 172h-4q-14 -86 -60 -186l-75 -174h-306z" />
<glyph unicode="y" horiz-adv-x="909" d="M10 1167h281l117 -618q18 -108 38 -311h5q11 146 41 303l116 626h271l-281 -1183q-31 -127 -46 -181.5t-45 -103.5q-62 -102 -228 -102q-45 0 -123 10v209l69 -4q88 0 88 53t-24 151z" />
<glyph unicode="z" horiz-adv-x="797" d="M47 0v211l406 750h-398v206h697v-192l-422 -768h422v-207h-705z" />
<glyph unicode="{" horiz-adv-x="561" d="M-66 672v4q82 11 118 74t36 151v381q0 138 58 204t194 66h152v-6q-114 -25 -141 -118q-13 -45 -13 -109v-379q0 -79 -14 -130q-28 -105 -154 -132v-4q100 -14 134 -87.5t34 -191.5v-356q0 -86 33.5 -144.5t120.5 -80.5v-4h-134q-157 0 -213.5 72.5t-56.5 234.5v334 q0 94 -34.5 147t-119.5 74z" />
<glyph unicode="|" horiz-adv-x="512" d="M154 0v1552h204v-1552h-204z" />
<glyph unicode="}" horiz-adv-x="561" d="M70 -190q86 20 119.5 75.5t33.5 151.5v354q0 79 12 131q26 111 156 148v4q-98 23 -133 84t-35 178v381q0 97 -35.5 154t-117.5 73v8h139q189 -4 238 -116q26 -60 26 -158v-379q0 -204 154 -225v-4q-120 -17 -143 -111q-11 -45 -11 -113v-333q0 -111 -21 -177 q-44 -131 -243 -131h-139v5z" />
<glyph unicode="~" d="M53 469q55 114 120 186t153 72q75 0 189.5 -57.5t141 -68.5t52 -11t48.5 15t39.5 36.5t31 49t28.5 52.5l117 -151q-40 -73 -75 -124q-79 -118 -189 -118q-52 0 -112 24.5t-152 67.5t-119 43t-49.5 -14t-40.5 -37q-19 -25 -66 -117z" />
<glyph horiz-adv-x="1802" d="M0 264q2 89 61 156t152 67q49 0 49 -49q0 -28 -48 -49.5t-71.5 -41.5t-23.5 -83t49 -98t123 -35q4 2 8 2q70 0 138.5 26t113.5 75t45 106.5t-30 114.5t-88 143.5t-88 150.5t-30 130q0 201 197 376q89 81 204 138t201.5 57t133.5 -37t47 -106q0 -22 -6 -43 q88 80 202.5 136t202 56t134 -37t46.5 -113q0 -141 -206 -307q-188 -141 -269 -141q-19 0 -38 14t-19 33l2 4q0 40 70 66q110 36 194 103q158 123 158 212q0 31 -19 48.5t-68.5 17.5t-134.5 -40t-154 -93.5t-127 -142t-58 -166t30.5 -141.5t90.5 -155.5t91 -151t31 -116.5 q0 -92 -64 -164.5t-162 -111.5t-187 -39q-191 0 -262 110q-61 -54 -149 -85t-179.5 -31t-160.5 33q-132 64 -132 202zM473 916q0 -70 20.5 -123t45 -94t76.5 -123t69 -119q61 37 96 37q62 0 62 -50q0 -19 -12.5 -29.5t-40 -21t-46.5 -21.5q-45 -28 -45 -114q6 -57 54 -89 t118 -32q4 2 9 2q70 0 138.5 26t113.5 75t45 106.5t-30 114.5t-88 143.5t-88 150.5t-30 131.5t23 133.5q-5 -4 -14 -14t-43.5 -37t-112 -72t-111.5 -45t-53 14t-19 33l2 4q0 40 70 66q108 35 207 110q145 121 145 205q0 31 -19 48.5t-67.5 17.5t-133 -39.5t-155.5 -94 t-128.5 -142.5t-57.5 -158zM1300 86q0 60 68 212t151 281.5t115 129.5q16 0 27.5 -10.5t11.5 -27t-55 -102.5q-142 -219 -209 -444q-14 -50 -24 -69t-34.5 -19t-37.5 15t-13 34zM1706 954q0 26 21 62t50.5 62t55.5 26q49 0 49 -49q0 -27 -21.5 -63.5t-51.5 -62.5t-56 -26 q-47 0 -47 51z" />
<glyph unicode="&#xa1;" horiz-adv-x="682" d="M209 82q0 216 7.5 307t15.5 171q15 154 20 239h180q2 -89 13 -204q30 -317 30 -513v-434h-266v434zM209 924v274h266v-274h-266z" />
<glyph unicode="&#xa2;" d="M147 401v379q0 210 105 322q93 100 221 100q43 0 84 -12l35 199h143l-43 -228q185 -83 185 -311v-92h-267v162h-6l-125 -709q17 -16 47 -16t56 12q21 27 28 137v107h267q0 -75 -9 -172t-52 -169q-90 -147 -277 -147q-50 0 -90 8l-41 -223h-142l49 260q-168 87 -168 393z M397 283h4l115 688l-18 2q-85 0 -96 -115q-5 -51 -5 -143v-432z" />
<glyph unicode="&#xa3;" d="M72 164q100 56 156.5 161t56.5 208.5t-33 162.5h-176v123h129q-94 148 -94 344q0 135 59.5 231.5t163.5 145.5t209.5 49t172.5 -21q141 -42 216 -175q28 -59 34.5 -125.5t6.5 -167.5h-262q-2 134 -28 198t-134 64q-170 0 -170 -219q0 -84 30.5 -164.5t63.5 -159.5h299 v-123h-254q19 -50 19 -124.5t-33 -149.5q-65 -143 -215 -240l6 -4q63 35 105 49.5t86 14.5t86 -6.5t88 -15.5t79 -15q111 0 201 63l57 -225q-50 -34 -123 -54t-124 -20t-91.5 7t-86.5 19t-100 26t-107 14q-94 0 -220 -66z" />
<glyph unicode="&#xa4;" d="M18 283l86 92q-37 72 -54 130.5t-17 133.5q0 143 71 266l-86 88l156 166l86 -90q129 80 257 80t255 -80l88 90l148 -166l-84 -88q73 -122 73 -271.5t-73 -258.5l84 -92l-148 -162l-88 88q-129 -78 -261 -78t-251 78l-86 -88zM274 640.5q0 -102.5 72 -184t171.5 -81.5 t169 81t69.5 167.5t-32 146.5t-87 96.5t-121 36.5q-99 0 -170.5 -80t-71.5 -182.5z" />
<glyph unicode="&#xa5;" d="M-37 1552h320l161 -407q52 -130 70 -240h4q18 110 70 240l162 407h311l-406 -893v-122h222v-105h-222v-127h222v-102h-222v-203h-286v203h-230v102h230v127h-230v105h230v122z" />
<glyph unicode="&#xa6;" horiz-adv-x="512" d="M154 0v621h204v-621h-204zM154 932v620h204v-620h-204z" />
<glyph unicode="&#xa7;" d="M76 694q0 94 45 173.5t131 127.5q-60 44 -82.5 102.5t-22.5 155.5q0 135 100.5 235.5t289.5 100.5q105 0 187 -41q173 -87 173 -323h-252q0 157 -129 157q-51 0 -85 -27.5t-34 -75.5t11 -75q19 -44 84 -96l280 -223q90 -67 133 -141t43 -173t-45 -180t-125 -131 q47 -32 82 -115.5t35 -161.5t-32.5 -145t-88.5 -115q-121 -102 -280 -102q-201 0 -300 121q-79 97 -82 238q0 28 -1 45h256q0 -95 31 -144t118 -49q44 0 78 28q47 39 47 105q0 89 -123 182l-244 193q-79 63 -118 105q-80 88 -80 249zM309 738q0 -89 68 -138l252 -207 q34 19 56 54.5t22 76.5t-21.5 72.5t-60.5 65.5l-234 192q-31 -13 -56.5 -46.5t-25.5 -69.5z" />
<glyph unicode="&#xa8;" horiz-adv-x="682" d="M10 1331v240h260v-240h-260zM410 1331v240h262v-240h-262z" />
<glyph unicode="&#xa9;" horiz-adv-x="1700" d="M45 779.5q0 163.5 62 312.5t173.5 260.5t258.5 174t312.5 62.5t312.5 -62.5t256.5 -173t172 -258.5t62.5 -315t-62.5 -317t-172.5 -262t-257.5 -175t-311 -63t-311 62.5t-259.5 176t-174 264t-62 314zM197 780q0 -179 88 -331.5t239.5 -241t304 -88.5t271 50t210.5 143 q193 194 193 468q0 271 -191 464q-91 91 -210 141.5t-251.5 50.5t-251.5 -50t-211 -142q-191 -191 -191 -464zM440 786q0 132 53.5 239.5t154 167.5t241 60t244.5 -82t129 -225h-183q-17 100 -107 140q-42 18 -108.5 18t-125.5 -43q-117 -86 -117 -270q0 -79 32 -155.5 t92.5 -123.5t137 -47t134.5 48t62 120h183q-12 -96 -65 -167.5t-135.5 -110t-194.5 -38.5t-214.5 62.5t-157.5 168.5t-55 238z" />
<glyph unicode="&#xaa;" horiz-adv-x="614" d="M41 602v131h532v-131h-532zM45 1043.5q0 92.5 33.5 138.5t83 70.5t139.5 59t90 91.5q0 5 -4 27q-11 43 -73 43t-80.5 -27.5t-18.5 -81.5h-164q0 111 55 168t185 57t185 -30t70 -73.5t15 -103.5v-413q0 -56 14 -99h-163q-11 21 -11 72h-4q-22 -40 -63 -65t-88 -25 q-104 0 -152.5 49.5t-48.5 142zM219 1075.5q0 -54.5 18 -77.5t58 -23t59 18.5t26 46.5q7 32 7 123v76q-21 -13 -67 -39.5t-65 -41.5q-36 -28 -36 -82.5z" />
<glyph unicode="&#xab;" d="M152 422v211l321 291v-232l-192 -162l192 -168v-233zM532 422v211l326 291v-232l-196 -162l196 -168v-233z" />
<glyph unicode="&#xac;" d="M53 602v227h920v-612h-225v385h-695z" />
<glyph unicode="&#xad;" horiz-adv-x="682" d="M98 528v238h488v-238h-488z" />
<glyph unicode="&#xae;" horiz-adv-x="1700" d="M45 778q0 164 62.5 313t173.5 260.5t259 174.5t311 63t311.5 -63.5t258 -174.5t172 -258.5t62.5 -315t-62 -314.5t-173 -260.5t-258.5 -176.5t-309.5 -63q-219 0 -404.5 109.5t-294 298t-108.5 407.5zM197 777q0 -179 88 -331.5t238 -240.5t328 -88t327.5 88.5t237 240.5 t87.5 331t-87.5 330.5t-237 240t-327.5 88.5t-328.5 -88t-238 -240t-87.5 -331zM520 334v878h420q169 0 236 -43q102 -70 102 -227q0 -117 -59 -173t-179 -64l211 -371h-198l-193 371h-170v-371h-170zM690 836h254q81 0 122.5 27t41.5 103t-56.5 95.5t-150.5 19.5h-211v-245 z" />
<glyph unicode="&#xaf;" horiz-adv-x="682" d="M-12 1378v152h708v-152h-708z" />
<glyph unicode="&#xb0;" horiz-adv-x="819" d="M102 1241q0 84 41 155t113 113.5t143.5 42.5t128.5 -24t99.5 -68t66 -100.5t23.5 -129.5t-41.5 -144t-112.5 -112.5t-153 -41.5q-128 0 -218 91t-90 218zM264 1240q0 -60 43 -103t104.5 -43t102.5 42.5t41 93t-19 84.5q-43 75 -126 75q-59 0 -102.5 -44.5t-43.5 -104.5z " />
<glyph unicode="&#xb1;" d="M53 -31v228h920v-228h-920zM53 557v227h346v277h226v-277h348v-227h-348v-278h-226v278h-346z" />
<glyph unicode="&#xb2;" horiz-adv-x="614" d="M27 621q5 100 16 157q20 108 176 262l90 88q54 56 73 88.5t19 90.5q0 112 -90 112q-68 0 -86 -45q-14 -43 -14 -133h-174v27q0 111 32 168q66 120 250 120q120 -2 194.5 -67.5t74.5 -175.5q0 -141 -119 -254l-147 -141q-95 -90 -97 -160h348v-137h-546z" />
<glyph unicode="&#xb3;" horiz-adv-x="614" d="M25 872v54h174q3 -96 12 -124q19 -65 92 -65q83 0 95 82q5 35 5 102.5t-20 90.5q-35 37 -168 37v137q92 3 117 12q57 26 57 113q0 106 -88 106t-90 -76v-63h-174q0 143 61 209.5t201 66.5q182 0 241 -112q29 -54 29 -126t-31 -128.5t-98 -67.5v-4q95 -10 132 -106 q18 -49 18 -117q0 -293 -289 -293q-171 0 -223.5 81t-52.5 191z" />
<glyph unicode="&#xb4;" horiz-adv-x="682" d="M170 1300l192 304h318l-303 -304h-207z" />
<glyph unicode="&#xb5;" d="M119 -391v1558h266v-798q0 -108 27 -156q33 -37 82 -37q81 0 101.5 65t20.5 169v757h267v-1167h-254v174h-4q-52 -174 -176 -174q-26 0 -64 10v-401h-266z" />
<glyph unicode="&#xb6;" horiz-adv-x="1126" d="M47 1199q0 120 48.5 202t138.5 116.5t223 34.5h620v-245h-86v-1547h-241v1547h-140v-1547h-241v1069q-208 0 -285 170q-37 80 -37 200z" />
<glyph unicode="&#xb8;" horiz-adv-x="682" d="M80 -420l39 86q107 -33 159 -33t79.5 27.5t27.5 69.5q-16 59 -90 59q-34 0 -84 -16l-43 41l121 186h108l-86 -131q31 12 68 12q90 0 139 -49q45 -34 45 -94t-26 -111q-80 -98 -234 -98q-51 0 -87 8.5t-66.5 19t-69.5 23.5z" />
<glyph unicode="&#xb9;" horiz-adv-x="614" d="M102 1266v125q110 2 179.5 37t95.5 124h137v-931h-186v645h-226z" />
<glyph unicode="&#xba;" horiz-adv-x="614" d="M45 602v131h522v-131h-522zM45 1174q0 172 13 248q30 167 249 167q218 0 247 -165q13 -73 14 -215.5t-18.5 -215t-74.5 -107t-151.5 -34.5t-149 19.5t-80.5 60.5q-49 70 -49 242zM217 1106q0 -64 14.5 -96.5t74.5 -32.5t74.5 32.5t14.5 96.5v233q0 72 -15.5 98.5 t-74 26.5t-73.5 -27t-15 -98v-233z" />
<glyph unicode="&#xbb;" d="M166 129v233l196 177l-196 153v232l326 -291v-211zM551 129v233l194 177l-194 153v232l321 -291v-211z" />
<glyph unicode="&#xbc;" horiz-adv-x="1536" d="M41 1266v125q108 2 178 37t96 124h138v-931h-187v645h-225zM268 0l871 1526h153l-870 -1526h-154zM897 188v138l303 589h207v-589h86v-138h-86v-188h-186v188h-324zM1034 326h187v376h-4z" />
<glyph unicode="&#xbd;" horiz-adv-x="1536" d="M25 1266v125q108 2 178 37t96 124h137v-931h-186v645h-225zM221 0l871 1526h153l-870 -1526h-154zM952 0q5 100 16 154q21 110 177 266l90 88q54 56 73 87.5t19 90.5q0 113 -90 113q-69 0 -84.5 -44t-15.5 -134h-174v26q0 111 33 169q67 120 249 120q121 -2 194.5 -67 t73.5 -177q0 -142 -118 -254l-148 -141q-94 -89 -96 -160h348v-137h-547z" />
<glyph unicode="&#xbe;" horiz-adv-x="1536" d="M25 872v54h174q3 -96 12 -124q19 -65 92 -65q83 0 95 82q5 35 5 102.5t-20 90.5q-35 37 -168 37v137q92 3 117 12q57 26 57 113q0 106 -88 106t-90 -76v-63h-174q0 143 61 209.5t201 66.5q182 0 241 -112q29 -54 29 -126t-31 -128.5t-98 -67.5v-4q95 -10 132 -106 q18 -49 18 -117q0 -293 -289 -293q-171 0 -223.5 81t-52.5 191zM326 0l870 1526h154l-871 -1526h-153zM918 188v138l303 589h206v-589h86v-138h-86v-188h-186v188h-323zM1055 326h186v376h-4z" />
<glyph unicode="&#xbf;" d="M123 -27.5q0 97.5 15 153.5q24 92 126 224q25 26 75 82.5t67 73.5q73 93 73 274h240q0 -206 -37 -283t-106 -162t-103.5 -132.5t-50.5 -92.5t-16 -126.5t27 -121.5t81 -40q95 0 123 47q19 39 22 100t5 82h254q2 -20 2 -43q0 -268 -185 -358q-90 -43 -214 -43t-213 47 t-137 134t-48 184.5zM461 932v266h262v-266h-262z" />
<glyph unicode="&#xc0;" horiz-adv-x="1139" d="M18 0l367 1552h387l348 -1552h-307l-76 393h-336l-75 -393h-308zM231 1989h318l192 -303h-206zM446 621h246l-78 440q-10 49 -20.5 158.5t-18.5 160.5h-4q-7 -60 -17.5 -163t-21.5 -156z" />
<glyph unicode="&#xc1;" horiz-adv-x="1139" d="M18 0l367 1552h387l348 -1552h-307l-76 393h-336l-75 -393h-308zM399 1686l193 303h317l-303 -303h-207zM446 621h246l-78 440q-10 49 -20.5 158.5t-18.5 160.5h-4q-7 -60 -17.5 -163t-21.5 -156z" />
<glyph unicode="&#xc2;" horiz-adv-x="1139" d="M18 0l367 1552h387l348 -1552h-307l-76 393h-336l-75 -393h-308zM188 1675l232 303h256l235 -303h-233l-129 170l-131 -170h-230zM446 621h246l-78 440q-10 49 -20.5 158.5t-18.5 160.5h-4q-7 -60 -17.5 -163t-21.5 -156z" />
<glyph unicode="&#xc3;" horiz-adv-x="1139" d="M18 0l367 1552h387l348 -1552h-307l-76 393h-336l-75 -393h-308zM197 1659q8 118 82 187t137 69t91 -9t104 -39t100 -30q80 0 102 88h133q-24 -140 -90.5 -196t-148.5 -56q-29 0 -98.5 21.5t-107 37t-73.5 15.5t-50.5 -9t-25.5 -24t-18 -31.5t-10 -23.5h-127zM446 621 h246l-78 440q-10 49 -20.5 158.5t-18.5 160.5h-4q-7 -60 -17.5 -163t-21.5 -156z" />
<glyph unicode="&#xc4;" horiz-adv-x="1139" d="M18 0l367 1552h387l348 -1552h-307l-76 393h-336l-75 -393h-308zM240 1716v240h260v-240h-260zM446 621h246l-78 440q-10 49 -20.5 158.5t-18.5 160.5h-4q-7 -60 -17.5 -163t-21.5 -156zM639 1716v240h262v-240h-262z" />
<glyph unicode="&#xc5;" horiz-adv-x="1139" d="M18 0l367 1552h387l348 -1552h-307l-76 393h-336l-75 -393h-308zM352 1770.5q0 74.5 30 125.5t81 81t108 30q91 0 154 -65t63 -156t-63 -154t-152.5 -63t-155 63.5t-65.5 138zM446 621h246l-78 440q-10 49 -20.5 158.5t-18.5 160.5h-4q-7 -60 -17.5 -163t-21.5 -156z M453 1788q0 -49 36 -84t82 -35t82.5 35.5t36.5 83t-35 83.5t-84.5 36t-83.5 -35t-34 -84z" />
<glyph unicode="&#xc6;" horiz-adv-x="1593" d="M-45 0l590 1552h991v-229h-502v-391h469v-230h-469v-475h502v-227h-788v397h-353l-133 -397h-307zM473 625h275v639h-56z" />
<glyph unicode="&#xc7;" horiz-adv-x="1139" d="M113 678v221q6 182 22.5 296.5t64.5 204.5q103 189 414 189q390 -6 420 -401q6 -58 6 -119h-282q-5 51 -9.5 99.5t-16.5 89.5q-27 98 -118 98q-127 0 -166.5 -95.5t-39.5 -238.5v-487q0 -141 38.5 -239.5t167.5 -98.5q100 0 128 130q13 64 18 226h289q-2 -34 -7 -90 q-12 -235 -107.5 -367.5t-320.5 -132.5q-322 0 -423 195q-48 93 -63 215t-15 305zM309 -420l39 86q109 -33 160 -33t78.5 27.5t27.5 69.5q-16 59 -90 59q-34 0 -84 -16l-43 41l121 186h109l-86 -131q30 12 67 12q91 0 140 -49q45 -35 45 -108q0 -43 -27 -97 q-79 -98 -234 -98q-51 0 -87 8.5t-66.5 19t-69.5 23.5z" />
<glyph unicode="&#xc8;" d="M131 0v1552h807v-229h-520v-389h479v-229h-479v-478h520v-227h-807zM174 1989h318l192 -303h-207z" />
<glyph unicode="&#xc9;" d="M131 0v1552h807v-229h-520v-389h479v-229h-479v-478h520v-227h-807zM342 1686l193 303h317l-303 -303h-207z" />
<glyph unicode="&#xca;" d="M131 0v1552h807v-229h-520v-389h479v-229h-479v-478h520v-227h-807zM152 1675l231 303h256l235 -303h-233l-129 170l-131 -170h-229z" />
<glyph unicode="&#xcb;" d="M131 0v1552h807v-229h-520v-389h479v-229h-479v-478h520v-227h-807zM182 1716v240h260v-240h-260zM582 1716v240h262v-240h-262z" />
<glyph unicode="&#xcc;" horiz-adv-x="627" d="M-53 1989h317l193 -303h-207zM141 0v1552h287v-1552h-287z" />
<glyph unicode="&#xcd;" horiz-adv-x="627" d="M115 1686l192 303h318l-303 -303h-207zM141 0v1552h287v-1552h-287z" />
<glyph unicode="&#xce;" horiz-adv-x="627" d="M-76 1675l232 303h256l235 -303h-233l-129 170l-131 -170h-230zM141 0v1552h287v-1552h-287z" />
<glyph unicode="&#xcf;" horiz-adv-x="627" d="M-45 1716v240h260v-240h-260zM141 0v1552h287v-1552h-287zM354 1716v240h262v-240h-262z" />
<glyph unicode="&#xd0;" horiz-adv-x="1251" d="M-12 684v197h159v671h598q124 0 227 -90q88 -78 121 -214q33 -137 33 -376.5t-12 -379t-63.5 -263.5t-159.5 -188q-74 -41 -213 -41h-531v684h-159zM434 227h125q128 0 184.5 52t72 169.5t15.5 338t-17 328.5t-62 158t-129 50h-189v-442h139v-197h-139v-457z" />
<glyph unicode="&#xd1;" horiz-adv-x="1251" d="M139 0v1552h297l223 -565q109 -265 205 -616h4q-43 607 -43 876v305h287v-1552h-299l-223 553q-104 251 -205 616h-4q45 -567 45 -878v-291h-287zM252 1659q8 118 82 187t151 69q48 0 78 -9t78 -30q105 -39 125 -39q80 0 102 88h133q-24 -140 -90.5 -196t-148.5 -56 q-31 0 -99 21.5t-106.5 37t-74 15.5t-50 -9t-25.5 -24t-18 -31.5t-10 -23.5h-127z" />
<glyph unicode="&#xd2;" horiz-adv-x="1251" d="M125 678v221q6 182 22.5 296.5t64.5 204.5q103 189 415 189q313 0 415 -190q47 -89 63.5 -203.5t22.5 -296.5v-221q0 -248 -30.5 -394.5t-139 -233.5t-304.5 -87t-298.5 51t-151.5 144t-64 215t-15 305zM287 1989h317l193 -303h-207zM420 535q0 -88 12.5 -160t58.5 -125 t136 -53q135 0 171 100t36 262v397q0 170 -37.5 285t-167.5 115t-169.5 -95.5t-39.5 -238.5v-487z" />
<glyph unicode="&#xd3;" horiz-adv-x="1251" d="M125 678v221q6 182 22.5 296.5t64.5 204.5q103 189 415 189q313 0 415 -190q47 -89 63.5 -203.5t22.5 -296.5v-221q0 -248 -30.5 -394.5t-139 -233.5t-304.5 -87t-298.5 51t-151.5 144t-64 215t-15 305zM420 535q0 -88 12.5 -160t58.5 -125t136 -53q135 0 171 100t36 262 v397q0 170 -37.5 285t-167.5 115t-169.5 -95.5t-39.5 -238.5v-487zM455 1686l192 303h318l-303 -303h-207z" />
<glyph unicode="&#xd4;" horiz-adv-x="1251" d="M125 678v221q6 182 22.5 296.5t64.5 204.5q103 189 415 189q313 0 415 -190q47 -89 63.5 -203.5t22.5 -296.5v-221q0 -248 -30.5 -394.5t-139 -233.5t-304.5 -87t-298.5 51t-151.5 144t-64 215t-15 305zM264 1675l232 303h256l235 -303h-233l-129 170l-131 -170h-230z M420 535q0 -88 12.5 -160t58.5 -125t136 -53q135 0 171 100t36 262v397q0 170 -37.5 285t-167.5 115t-169.5 -95.5t-39.5 -238.5v-487z" />
<glyph unicode="&#xd5;" horiz-adv-x="1251" d="M125 678v221q6 182 22.5 296.5t64.5 204.5q103 189 415 189q313 0 415 -190q47 -89 63.5 -203.5t22.5 -296.5v-221q0 -248 -30.5 -394.5t-139 -233.5t-304.5 -87t-298.5 51t-151.5 144t-64 215t-15 305zM252 1659q8 118 82 187t151 69q48 0 78 -9t78 -30q105 -39 125 -39 q80 0 102 88h133q-24 -140 -90.5 -196t-148.5 -56q-31 0 -99 21.5t-106.5 37t-74 15.5t-50 -9t-25.5 -24t-18 -31.5t-10 -23.5h-127zM420 535q0 -88 12.5 -160t58.5 -125t136 -53q135 0 171 100t36 262v397q0 170 -37.5 285t-167.5 115t-169.5 -95.5t-39.5 -238.5v-487z" />
<glyph unicode="&#xd6;" horiz-adv-x="1251" d="M125 678v221q6 182 22.5 296.5t64.5 204.5q103 189 415 189q313 0 415 -190q47 -89 63.5 -203.5t22.5 -296.5v-221q0 -248 -30.5 -394.5t-139 -233.5t-304.5 -87t-298.5 51t-151.5 144t-64 215t-15 305zM295 1716v240h260v-240h-260zM420 535q0 -88 12.5 -160t58.5 -125 t136 -53q135 0 171 100t36 262v397q0 170 -37.5 285t-167.5 115t-169.5 -95.5t-39.5 -238.5v-487zM694 1716v240h262v-240h-262z" />
<glyph unicode="&#xd7;" d="M53 217l295 297l-295 299l160 162l295 -299l305 309l160 -162l-305 -309l305 -307l-160 -162l-305 309l-295 -299z" />
<glyph unicode="&#xd8;" horiz-adv-x="1251" d="M74 -16l121 194q-70 142 -70 500v221q6 182 22.5 296.5t64.5 204.5q103 189 415 189q133 0 213.5 -24t150.5 -101l90 148l103 -72l-119 -190q39 -79 48.5 -173t14.5 -278v-221q0 -248 -30.5 -394.5t-139 -233.5t-331.5 -87q-178 0 -267 45q-50 24 -92 66l-94 -152z M420 569l385 621q-11 166 -178 166q-182 0 -201 -250q-6 -69 -6 -164v-373zM440 356q17 -80 58.5 -119.5t128.5 -39.5q130 0 168.5 101.5t38.5 264.5v60q0 243 -3 366z" />
<glyph unicode="&#xd9;" horiz-adv-x="1251" d="M139 469v1083h287v-1058q0 -142 37 -219.5t165 -77.5t163.5 76.5t35.5 220.5v1058h287v-1083q0 -177 -44 -287t-150 -164.5t-269.5 -54.5t-257.5 31t-149 93q-105 117 -105 382zM287 1989h317l193 -303h-207z" />
<glyph unicode="&#xda;" horiz-adv-x="1251" d="M139 469v1083h287v-1058q0 -142 37 -219.5t165 -77.5t163.5 76.5t35.5 220.5v1058h287v-1083q0 -177 -44 -287t-150 -164.5t-269.5 -54.5t-257.5 31t-149 93q-105 117 -105 382zM455 1686l192 303h318l-303 -303h-207z" />
<glyph unicode="&#xdb;" horiz-adv-x="1251" d="M139 469v1083h287v-1058q0 -142 37 -219.5t165 -77.5t163.5 76.5t35.5 220.5v1058h287v-1083q0 -177 -44 -287t-150 -164.5t-269.5 -54.5t-257.5 31t-149 93q-105 117 -105 382zM264 1675l232 303h256l235 -303h-233l-129 170l-131 -170h-230z" />
<glyph unicode="&#xdc;" horiz-adv-x="1251" d="M139 469v1083h287v-1058q0 -142 37 -219.5t165 -77.5t163.5 76.5t35.5 220.5v1058h287v-1083q0 -177 -44 -287t-150 -164.5t-269.5 -54.5t-257.5 31t-149 93q-105 117 -105 382zM295 1716v240h260v-240h-260zM694 1716v240h262v-240h-262z" />
<glyph unicode="&#xdd;" horiz-adv-x="1139" d="M25 1552h313l162 -407q52 -135 67 -240h4q16 96 43.5 166.5t51.5 128.5l137 352h313l-405 -893v-659h-287v659zM399 1686l193 303h317l-303 -303h-207z" />
<glyph unicode="&#xde;" horiz-adv-x="1139" d="M139 0v1552h287v-325h299q128 0 209 -61q149 -115 149 -380q0 -256 -143 -368q-115 -92 -322 -92h-192v-326h-287zM426 553h154q102 0 155 54.5t53 163.5t-23.5 154t-72 59.5t-135.5 14.5h-131v-446z" />
<glyph unicode="&#xdf;" d="M123 0v1102q0 90 9.5 169t46.5 151.5t118 119.5t213 47t216 -57q161 -108 161 -343.5t-162 -287.5v-4q99 -24 141.5 -131.5t44.5 -302.5q0 -454 -239 -492q-111 0 -189 29v190q28 -12 60 -12q102 2 102 207l-2 242q0 78 -32 117t-109 42v197q54 6 77 14q48 17 48 129v127 q0 56 -30 92.5t-98 36.5t-89 -67t-21 -168v-1147h-266z" />
<glyph unicode="&#xe0;" d="M86 320.5q0 122.5 51 199t125 116.5t182 86t141 79.5t33 67.5t-7 66t-36 44t-100.5 12t-99 -41.5t-27.5 -128.5h-254q0 185 85 281t319 96q168 0 252 -50.5t106.5 -123t22.5 -172.5v-688q0 -81 22 -164h-252q-16 37 -16 121h-4q-96 -152 -234 -152q-213 0 -277 151 q-32 78 -32 200.5zM174 1604h318l192 -304h-207zM352 340.5q0 -86.5 28 -125.5t89.5 -39t92 31.5t39 75.5t9.5 110.5t2 93.5v127q-33 -22 -76 -50q-99 -64 -141.5 -100.5t-42.5 -123z" />
<glyph unicode="&#xe1;" d="M86 320.5q0 122.5 51 199t125 116.5t182 86t141 79.5t33 67.5t-7 66t-36 44t-100.5 12t-99 -41.5t-27.5 -128.5h-254q0 185 85 281t319 96q168 0 252 -50.5t106.5 -123t22.5 -172.5v-688q0 -81 22 -164h-252q-16 37 -16 121h-4q-96 -152 -234 -152q-213 0 -277 151 q-32 78 -32 200.5zM342 1300l193 304h317l-303 -304h-207zM352 340.5q0 -86.5 28 -125.5t89.5 -39t92 31.5t39 75.5t9.5 110.5t2 93.5v127q-33 -22 -76 -50q-99 -64 -141.5 -100.5t-42.5 -123z" />
<glyph unicode="&#xe2;" d="M86 320.5q0 122.5 51 199t125 116.5t182 86t141 79.5t33 67.5t-7 66t-36 44t-100.5 12t-99 -41.5t-27.5 -128.5h-254q0 185 85 281t319 96q168 0 252 -50.5t106.5 -123t22.5 -172.5v-688q0 -81 22 -164h-252q-16 37 -16 121h-4q-96 -152 -234 -152q-213 0 -277 151 q-32 78 -32 200.5zM152 1290l231 303h256l235 -303h-233l-129 170l-131 -170h-229zM352 340.5q0 -86.5 28 -125.5t89.5 -39t92 31.5t39 75.5t9.5 110.5t2 93.5v127q-33 -22 -76 -50q-99 -64 -141.5 -100.5t-42.5 -123z" />
<glyph unicode="&#xe3;" d="M86 320.5q0 122.5 51 199t125 116.5t182 86t141 79.5t33 67.5t-7 66t-36 44t-100.5 12t-99 -41.5t-27.5 -128.5h-254q0 185 85 281t319 96q168 0 252 -50.5t106.5 -123t22.5 -172.5v-688q0 -81 22 -164h-252q-16 37 -16 121h-4q-96 -152 -234 -152q-213 0 -277 151 q-32 78 -32 200.5zM139 1274q10 118 83.5 187t150.5 69q47 0 77 -9t78 -30q105 -39 125 -39q80 0 103 88h133q-24 -141 -91 -196.5t-149 -55.5q-31 0 -99 21.5t-106.5 37t-73.5 15.5t-50.5 -9t-26.5 -25t-17.5 -31.5t-9.5 -22.5h-127zM352 340.5q0 -86.5 28 -125.5t89.5 -39 t92 31.5t39 75.5t9.5 110.5t2 93.5v127q-33 -22 -76 -50q-99 -64 -141.5 -100.5t-42.5 -123z" />
<glyph unicode="&#xe4;" d="M86 320.5q0 122.5 51 199t125 116.5t182 86t141 79.5t33 67.5t-7 66t-36 44t-100.5 12t-99 -41.5t-27.5 -128.5h-254q0 185 85 281t319 96q168 0 252 -50.5t106.5 -123t22.5 -172.5v-688q0 -81 22 -164h-252q-16 37 -16 121h-4q-96 -152 -234 -152q-213 0 -277 151 q-32 78 -32 200.5zM182 1331v240h260v-240h-260zM352 340.5q0 -86.5 28 -125.5t89.5 -39t92 31.5t39 75.5t9.5 110.5t2 93.5v127q-33 -22 -76 -50q-99 -64 -141.5 -100.5t-42.5 -123zM582 1331v240h262v-240h-262z" />
<glyph unicode="&#xe5;" d="M86 320.5q0 122.5 51 199t125 116.5t182 86t141 79.5t33 67.5t-7 66t-36 44t-100.5 12t-99 -41.5t-27.5 -128.5h-254q0 185 85 281t319 96q168 0 252 -50.5t106.5 -123t22.5 -172.5v-688q0 -81 22 -164h-252q-16 37 -16 121h-4q-96 -152 -234 -152q-213 0 -277 151 q-32 78 -32 200.5zM295 1510.5q0 74.5 30 125.5t80.5 81t108.5 30q91 0 154 -65t63 -156t-63 -154t-152.5 -63t-155 63.5t-65.5 138zM352 340.5q0 -86.5 28 -125.5t89.5 -39t92 31.5t39 75.5t9.5 110.5t2 93.5v127q-33 -22 -76 -50q-99 -64 -141.5 -100.5t-42.5 -123z M395 1527.5q0 -47.5 36.5 -83t82 -35.5t82.5 35t37 83t-35 84t-84 36t-84 -36t-35 -83.5z" />
<glyph unicode="&#xe6;" horiz-adv-x="1479" d="M90 295q0 143 46 217q46 76 167 143q42 25 139 66.5t134.5 74.5t37.5 93t-30.5 81t-90.5 21t-87 -19t-34.5 -49t-11.5 -96h-266q0 96 27 181q59 190 379 190q157 0 266 -76q52 44 108.5 60t148.5 16t171 -33q172 -71 180 -329v-299h-502v-152q0 -95 23 -152t100 -57 q103 0 113 111v110h268q0 -200 -85.5 -314t-295.5 -114q-97 0 -160 27t-118 94q-40 -61 -112.5 -91t-172.5 -30t-179 31q-163 62 -163 295zM356 342.5q0 -95.5 24 -131t92 -35.5q134 0 134 201v235q-18 -13 -79 -49.5t-93 -62.5q-78 -62 -78 -157.5zM872 743h236v115 q0 80 -31 106.5t-86 26.5q-103 0 -119 -133v-115z" />
<glyph unicode="&#xe7;" horiz-adv-x="909" d="M98 406v378q0 296 172 376q80 38 197.5 38t199.5 -48q156 -90 156 -296v-92h-266v129q-6 100 -92 100q-84 0 -95 -117q-5 -52 -5 -143v-334q0 -163 41 -197q21 -19 59 -24q54 1 69 39.5t23 132.5v107h266v-107q0 -254 -153 -336q-82 -43 -211 -43q-178 0 -269.5 102.5 t-91.5 334.5zM195 -420l38 86q109 -33 160.5 -33t79 27.5t27.5 69.5q-16 59 -90 59q-36 0 -84 -16l-43 41l120 186h109l-86 -131q30 12 68 12q90 0 139 -49q45 -34 45 -94.5t-27 -110.5q-79 -98 -233 -98q-53 0 -88 8.5t-65.5 19t-69.5 23.5z" />
<glyph unicode="&#xe8;" d="M106 459v307q0 285 176 384q87 48 218 48t213.5 -34t124 -100t54.5 -153.5t13 -226.5v-156h-532v-170q1 -106 36 -144t104.5 -38t95.5 51.5t26 167.5h266q0 -210 -88.5 -318t-280.5 -108q-299 0 -382 209q-44 108 -44 281zM174 1604h318l192 -304h-207zM373 735h266v101 q-2 90 -31 122.5t-97.5 32.5t-96 -25.5t-34.5 -66t-7 -117.5v-47z" />
<glyph unicode="&#xe9;" d="M106 459v307q0 285 176 384q87 48 218 48t213.5 -34t124 -100t54.5 -153.5t13 -226.5v-156h-532v-170q1 -106 36 -144t104.5 -38t95.5 51.5t26 167.5h266q0 -210 -88.5 -318t-280.5 -108q-299 0 -382 209q-44 108 -44 281zM342 1300l193 304h317l-303 -304h-207zM373 735 h266v101q-2 90 -31 122.5t-97.5 32.5t-96 -25.5t-34.5 -66t-7 -117.5v-47z" />
<glyph unicode="&#xea;" d="M106 459v307q0 285 176 384q87 48 218 48t213.5 -34t124 -100t54.5 -153.5t13 -226.5v-156h-532v-170q1 -106 36 -144t104.5 -38t95.5 51.5t26 167.5h266q0 -210 -88.5 -318t-280.5 -108q-299 0 -382 209q-44 108 -44 281zM152 1290l231 303h256l235 -303h-233l-129 170 l-131 -170h-229zM373 735h266v101q-2 90 -31 122.5t-97.5 32.5t-96 -25.5t-34.5 -66t-7 -117.5v-47z" />
<glyph unicode="&#xeb;" d="M106 459v307q0 285 176 384q87 48 218 48t213.5 -34t124 -100t54.5 -153.5t13 -226.5v-156h-532v-170q1 -106 36 -144t104.5 -38t95.5 51.5t26 167.5h266q0 -210 -88.5 -318t-280.5 -108q-299 0 -382 209q-44 108 -44 281zM182 1331v240h260v-240h-260zM373 735h266v101 q-2 90 -31 122.5t-97.5 32.5t-96 -25.5t-34.5 -66t-7 -117.5v-47zM582 1331v240h262v-240h-262z" />
<glyph unicode="&#xec;" horiz-adv-x="627" d="M-53 1604h317l193 -304h-207zM152 0v1167h266v-1167h-266z" />
<glyph unicode="&#xed;" horiz-adv-x="627" d="M115 1300l192 304h318l-303 -304h-207zM152 0v1167h266v-1167h-266z" />
<glyph unicode="&#xee;" horiz-adv-x="606" d="M-96 1290l231 303h256l236 -303h-234l-129 170l-131 -170h-229zM152 0v1167h266v-1167h-266z" />
<glyph unicode="&#xef;" horiz-adv-x="627" d="M-45 1331v240h260v-240h-260zM152 0v1167h266v-1167h-266zM354 1331v240h262v-240h-262z" />
<glyph unicode="&#xf0;" d="M95 535.5q1 210.5 9.5 307.5t46.5 182q77 173 351 173q66 0 106 -8q-16 51 -37.5 82t-60.5 49l-133 -92l-90 94l57 43q-61 12 -170 18v164q247 -4 379 -37l135 95l90 -97l-82 -57q106 -75 156 -266q55 -208 55 -645q-2 -163 -17.5 -266t-58.5 -172q-84 -134 -329 -134 q-171 0 -259 58t-118.5 178t-29.5 330.5zM360 381q0 -118 25.5 -161.5t100.5 -43.5t104 20.5t37 62t8 122.5v389q0 110 -22 165.5t-100 55.5t-108.5 -30t-37.5 -74t-7 -117v-389z" />
<glyph unicode="&#xf1;" d="M125 0v1167h266v-120h4q67 151 240 151q165 0 231 -129q35 -67 35 -170v-899h-266v778q0 98 -21 144t-92 49q-131 0 -131 -215v-756h-266zM139 1274q10 118 83.5 187t150.5 69q47 0 77 -9t78 -30q105 -39 125 -39q80 0 103 88h133q-24 -141 -91 -196.5t-149 -55.5 q-31 0 -99 21.5t-106.5 37t-73.5 15.5t-50.5 -9t-26.5 -25t-17.5 -31.5t-9.5 -22.5h-127z" />
<glyph unicode="&#xf2;" d="M110 566q1 180 9.5 277t46.5 182q77 173 350 173q270 0 344 -172q37 -85 46 -194t9 -306.5t-29 -318.5t-115 -179.5t-236 -58.5t-229.5 33t-122.5 102t-58.5 175.5t-14.5 286.5zM174 1604h318l192 -304h-207zM375 381q0 -118 25 -161.5t100 -43.5t104 20.5t37 62t8 122.5 v389q0 110 -22 165.5t-99.5 55.5t-108 -30t-37.5 -74t-7 -117v-389z" />
<glyph unicode="&#xf3;" d="M110 566q1 180 9.5 277t46.5 182q77 173 350 173q270 0 344 -172q37 -85 46 -194t9 -306.5t-29 -318.5t-115 -179.5t-236 -58.5t-229.5 33t-122.5 102t-58.5 175.5t-14.5 286.5zM342 1300l193 304h317l-303 -304h-207zM375 381q0 -118 25 -161.5t100 -43.5t104 20.5 t37 62t8 122.5v389q0 110 -22 165.5t-99.5 55.5t-108 -30t-37.5 -74t-7 -117v-389z" />
<glyph unicode="&#xf4;" d="M110 566q1 180 9.5 277t46.5 182q77 173 350 173q270 0 344 -172q37 -85 46 -194t9 -306.5t-29 -318.5t-115 -179.5t-236 -58.5t-229.5 33t-122.5 102t-58.5 175.5t-14.5 286.5zM152 1290l231 303h256l235 -303h-233l-129 170l-131 -170h-229zM375 381q0 -118 25 -161.5 t100 -43.5t104 20.5t37 62t8 122.5v389q0 110 -22 165.5t-99.5 55.5t-108 -30t-37.5 -74t-7 -117v-389z" />
<glyph unicode="&#xf5;" d="M110 566q1 180 9.5 277t46.5 182q77 173 350 173q270 0 344 -172q37 -85 46 -194t9 -306.5t-29 -318.5t-115 -179.5t-236 -58.5t-229.5 33t-122.5 102t-58.5 175.5t-14.5 286.5zM139 1274q10 118 83.5 187t150.5 69q47 0 77 -9t78 -30q105 -39 125 -39q80 0 103 88h133 q-24 -141 -91 -196.5t-149 -55.5q-31 0 -99 21.5t-106.5 37t-73.5 15.5t-50.5 -9t-26.5 -25t-17.5 -31.5t-9.5 -22.5h-127zM375 381q0 -118 25 -161.5t100 -43.5t104 20.5t37 62t8 122.5v389q0 110 -22 165.5t-99.5 55.5t-108 -30t-37.5 -74t-7 -117v-389z" />
<glyph unicode="&#xf6;" d="M110 566q1 180 9.5 277t46.5 182q77 173 350 173q270 0 344 -172q37 -85 46 -194t9 -306.5t-29 -318.5t-115 -179.5t-236 -58.5t-229.5 33t-122.5 102t-58.5 175.5t-14.5 286.5zM182 1331v240h260v-240h-260zM375 381q0 -118 25 -161.5t100 -43.5t104 20.5t37 62t8 122.5 v389q0 110 -22 165.5t-99.5 55.5t-108 -30t-37.5 -74t-7 -117v-389zM582 1331v240h262v-240h-262z" />
<glyph unicode="&#xf7;" d="M53 401v228h920v-228h-920zM381 12v238h260v-238h-260zM381 780v238h260v-238h-260z" />
<glyph unicode="&#xf8;" d="M14 -49l142 205q-47 121 -46 355.5t10.5 334.5t47.5 182q77 170 348 170q191 0 283 -84l108 162l101 -72l-136 -205q35 -91 39 -213t4 -290t-28.5 -289t-114 -179.5t-267 -58.5t-272.5 72l-110 -162zM375 453l270 403q-5 65 -33 100t-95 35t-97.5 -30t-37.5 -74t-7 -117 v-317zM379 293q6 -63 36 -90t95 -27t94 20.5t37 62t8 122.5v317z" />
<glyph unicode="&#xf9;" d="M119 272v895h266v-798q0 -108 27 -156q33 -37 82 -37q81 0 101.5 65t20.5 169v757h267v-1167h-254v174h-4q-59 -203 -248 -205q-192 0 -237 134q-21 65 -21 169zM174 1604h318l192 -304h-207z" />
<glyph unicode="&#xfa;" d="M119 272v895h266v-798q0 -108 27 -156q33 -37 82 -37q81 0 101.5 65t20.5 169v757h267v-1167h-254v174h-4q-59 -203 -248 -205q-192 0 -237 134q-21 65 -21 169zM342 1300l193 304h317l-303 -304h-207z" />
<glyph unicode="&#xfb;" d="M119 272v895h266v-798q0 -108 27 -156q33 -37 82 -37q81 0 101.5 65t20.5 169v757h267v-1167h-254v174h-4q-59 -203 -248 -205q-192 0 -237 134q-21 65 -21 169zM152 1311l231 303h256l235 -303h-233l-129 170l-131 -170h-229z" />
<glyph unicode="&#xfc;" d="M119 272v895h266v-798q0 -108 27 -156q33 -37 82 -37q81 0 101.5 65t20.5 169v757h267v-1167h-254v174h-4q-59 -203 -248 -205q-192 0 -237 134q-21 65 -21 169zM182 1331v240h260v-240h-260zM582 1331v240h262v-240h-262z" />
<glyph unicode="&#xfd;" horiz-adv-x="909" d="M10 1167h281l117 -618q18 -108 38 -311h5q11 146 41 303l116 626h271l-281 -1183q-31 -127 -46 -181.5t-45 -103.5q-62 -102 -228 -102q-45 0 -123 10v209l69 -4q88 0 88 53t-24 151zM285 1300l192 304h318l-303 -304h-207z" />
<glyph unicode="&#xfe;" d="M119 -391v1943h266v-508h4q36 84 91.5 119t140.5 35q138 -3 205 -95.5t71 -322.5v-422q-6 -171 -65 -280t-211 -109q-87 5 -141.5 36t-102.5 116h-4v-512h-254zM385 383q0 -207 129 -207q106 0 117 201v389q-6 120 -17 155q-23 70 -104.5 70t-103 -73.5t-21.5 -184.5 v-350z" />
<glyph unicode="&#xff;" horiz-adv-x="909" d="M10 1167h281l117 -618q18 -108 38 -311h5q11 146 41 303l116 626h271l-281 -1183q-31 -127 -46 -181.5t-45 -103.5q-62 -102 -228 -102q-45 0 -123 10v209l69 -4q88 0 88 53t-24 151zM125 1331v240h260v-240h-260zM524 1331v240h262v-240h-262z" />
<glyph unicode="&#x152;" horiz-adv-x="1706" d="M123 737v162q0 280 98.5 485t345.5 205q82 0 158 -38.5t119 -120.5h4v4l4 -4v122h768v-229h-506v-391h469v-230h-469v-475h506v-227h-776v152h-4q-33 -57 -85.5 -101t-102.5 -66t-81 -22q-149 0 -241 68.5t-136.5 181t-57.5 240t-13 284.5zM410 653q0 -456 213 -456 q123 0 163.5 68.5t40.5 201.5v639q0 108 -44.5 179t-153.5 71q-132 -11 -175.5 -146t-43.5 -329q2 -60 2 -112t-2 -116z" />
<glyph unicode="&#x153;" horiz-adv-x="1479" d="M95 535.5q1 210.5 9.5 307.5t46.5 182q77 173 351 173q73 -2 128 -27.5t118 -91.5q80 119 282 119q68 0 142.5 -22.5t117.5 -85.5q99 -139 99 -338v-217h-506v-121q0 -140 24 -189t88 -49q127 0 127 135v86h267q0 -154 -40 -247q-77 -181 -376 -181q-61 0 -122.5 29 t-102.5 80q-53 -56 -121.5 -82.5t-124.5 -26.5q-171 0 -259 58t-118.5 178t-29.5 330.5zM360 444q4 -216 52 -249q24 -17 84.5 -18t90 54.5t29.5 229.5v342q-6 138 -52 170q-27 18 -87 18t-88.5 -49.5t-28.5 -171.5v-326zM879 741h243v72q0 95 -27 136.5t-100.5 41.5 t-94.5 -59t-21 -150v-41z" />
<glyph unicode="&#x178;" horiz-adv-x="1139" d="M25 1552h313l162 -407q52 -135 67 -240h4q16 96 43.5 166.5t51.5 128.5l137 352h313l-405 -893v-659h-287v659zM240 1716v240h260v-240h-260zM639 1716v240h262v-240h-262z" />
<glyph unicode="&#x2c6;" horiz-adv-x="682" d="M-20 1331l231 303h256l235 -303h-233l-129 170l-131 -170h-229z" />
<glyph unicode="&#x2dc;" horiz-adv-x="682" d="M-33 1315q10 118 83.5 187t150.5 69q44 0 69 -7.5t108 -39t103 -31.5q80 0 103 88h133q-24 -141 -91 -196.5t-149 -55.5q-31 0 -99 21.5t-106.5 37t-73.5 15.5t-50.5 -9t-26.5 -25t-17.5 -31.5t-9.5 -22.5h-127z" />
<glyph unicode="&#x2000;" horiz-adv-x="1003" />
<glyph unicode="&#x2001;" horiz-adv-x="2007" />
<glyph unicode="&#x2002;" horiz-adv-x="1003" />
<glyph unicode="&#x2003;" horiz-adv-x="2007" />
<glyph unicode="&#x2004;" horiz-adv-x="669" />
<glyph unicode="&#x2005;" horiz-adv-x="501" />
<glyph unicode="&#x2006;" horiz-adv-x="334" />
<glyph unicode="&#x2007;" horiz-adv-x="334" />
<glyph unicode="&#x2008;" horiz-adv-x="250" />
<glyph unicode="&#x2009;" horiz-adv-x="401" />
<glyph unicode="&#x200a;" horiz-adv-x="111" />
<glyph unicode="&#x2010;" horiz-adv-x="682" d="M98 528v238h488v-238h-488z" />
<glyph unicode="&#x2011;" horiz-adv-x="682" d="M98 528v238h488v-238h-488z" />
<glyph unicode="&#x2012;" horiz-adv-x="682" d="M98 528v238h488v-238h-488z" />
<glyph unicode="&#x2013;" d="M0 537v227h1024v-227h-1024z" />
<glyph unicode="&#x2014;" horiz-adv-x="2048" d="M0 537v227h2048v-227h-2048z" />
<glyph unicode="&#x2018;" horiz-adv-x="569" d="M156 1024v246q0 144 54.5 218.5t192.5 96.5v-96q-66 -9 -98.5 -55t-32.5 -142h131v-268h-247z" />
<glyph unicode="&#x2019;" horiz-adv-x="569" d="M166 991v94q67 11 99 57t32 140h-131v270h248v-247q0 -144 -54.5 -217.5t-193.5 -96.5z" />
<glyph unicode="&#x201a;" horiz-adv-x="569" d="M178 4v268h246v-245q0 -97 -22 -158t-75 -97.5t-149 -56.5v95q78 15 103.5 59.5t25.5 134.5h-129z" />
<glyph unicode="&#x201c;" d="M178 1024v246q0 97 23 160q47 127 225 155v-96q-66 -9 -98.5 -55t-32.5 -142h131v-268h-248zM582 1024v246q0 144 54.5 218.5t192.5 96.5v-96q-66 -9 -98.5 -55t-32.5 -142h131v-268h-247z" />
<glyph unicode="&#x201d;" d="M195 991v94q67 11 99 57t32 140h-131v270h247v-247q0 -144 -54 -217.5t-193 -96.5zM598 991v94q67 11 99 57t32 140h-131v270h248v-247q0 -144 -54.5 -217.5t-193.5 -96.5z" />
<glyph unicode="&#x201e;" d="M197 4v268h245v-245q0 -97 -22 -158q-41 -117 -223 -154v95q76 15 102.5 60.5t26.5 133.5h-129zM600 4v268h246v-245q0 -97 -22 -158t-75 -97.5t-149 -56.5v95q75 18 107 61q22 43 22 133h-129z" />
<glyph unicode="&#x2022;" horiz-adv-x="860" d="M45 775.5q0 104.5 51.5 194t138.5 141.5t192.5 52t194 -52.5t141 -141t52.5 -194t-52.5 -195.5t-141 -142.5t-194 -52.5t-192.5 52.5t-138.5 143t-51.5 195z" />
<glyph unicode="&#x2026;" horiz-adv-x="2048" d="M207 0v272h270v-272h-270zM889 0v272h270v-272h-270zM1571 0v272h270v-272h-270z" />
<glyph unicode="&#x202f;" horiz-adv-x="401" />
<glyph unicode="&#x2039;" horiz-adv-x="569" d="M119 422v211l321 291v-232l-194 -153l194 -177v-233z" />
<glyph unicode="&#x203a;" horiz-adv-x="569" d="M129 129v233l193 168l-193 162v232l322 -291v-211z" />
<glyph unicode="&#x205f;" horiz-adv-x="501" />
<glyph unicode="&#x2122;" horiz-adv-x="1761" d="M2 1391v161h633v-161h-236v-676h-163v676h-234zM723 715v837h264l168 -495l166 495h264v-837h-164v676h-4l-215 -676h-96l-215 676h-4v-676h-164z" />
<glyph unicode="&#xe000;" horiz-adv-x="1165" d="M0 0v1165h1165v-1165h-1165z" />
</font>
</defs>
</svg>
