<?xml version="1.0" standalone="no"?>
<!DOCTYPE svg PUBLIC "-//W3C//DTD SVG 1.1//EN" "http://www.w3.org/Graphics/SVG/1.1/DTD/svg11.dtd" >
<svg xmlns="http://www.w3.org/2000/svg">
<metadata></metadata>
<defs>
<font id="ContextRepriseCondensedSSiCn" horiz-adv-x="909" >
<font-face units-per-em="2048" ascent="1638" descent="-410" />
<missing-glyph horiz-adv-x="492" />
<glyph horiz-adv-x="0" />
<glyph horiz-adv-x="0" />
<glyph unicode="&#xd;" horiz-adv-x="0" />
<glyph unicode=" "  horiz-adv-x="492" />
<glyph unicode="&#x09;" horiz-adv-x="492" />
<glyph unicode="&#xa0;" horiz-adv-x="492" />
<glyph unicode="!" horiz-adv-x="528" d="M170 0v199h188v-199h-188zM170 1477h188l-32 -1092h-123z" />
<glyph unicode="&#x22;" horiz-adv-x="834" d="M178 952v525h135v-525h-135zM520 952v525h135v-525h-135z" />
<glyph unicode="#" horiz-adv-x="983" d="M47 424v137h184l39 318h-178v137h197l51 420h135l-51 -420h217l51 420h135l-51 -420h160v-137h-178l-39 -318h170v-137h-187l-53 -424h-135l53 424h-217l-53 -424h-135l53 424h-168zM367 561h217l39 318h-217z" />
<glyph unicode="$" horiz-adv-x="983" d="M43 451h180q0 -97 13 -162q28 -150 208 -168v541q-96 31 -152 54.5t-111 67.5q-120 94 -120 283q0 208 147 321q85 66 236 76v121h86v-121q247 -12 327 -188q40 -87 42 -213h-180q0 232 -189 252v-506q147 -49 220.5 -82.5t131.5 -111.5t58 -216q0 -213 -118.5 -314.5 t-291.5 -113.5v-194h-86v194q-223 10 -312 128t-89 352zM250 1085q0 -97 51 -153.5t143 -93.5v477q-194 -26 -194 -230zM530 121q96 8 159 76t63 157t-28 140q-50 87 -194 139v-512z" />
<glyph unicode="%" horiz-adv-x="1554" d="M94 1101.5q0 156.5 51.5 259.5t216.5 103q209 0 250 -190q19 -85 19 -206.5t-18.5 -207t-77 -138t-173 -52.5t-173 52.5t-77 137.5t-18.5 241.5zM242 1067.5q0 -149.5 21 -217.5t99 -68q99 0 114 127q7 59 7 185.5t-21 193t-99.5 66.5t-99.5 -68.5t-21 -218zM381 -29 l635 1493h143l-635 -1493h-143zM924 351q0 104 9 173t35 124q57 118 223 118t217.5 -103.5t51.5 -294t-51.5 -294t-216.5 -103.5q-115 0 -174 53.5t-76.5 138t-17.5 188.5zM1071 394q0 -124 7 -184q15 -128 114 -128q79 0 100 66.5t21 193t-7 184.5q-15 127 -114 127 q-79 0 -100 -67.5t-21 -191.5z" />
<glyph unicode="&#x26;" horiz-adv-x="1139" d="M51 396q0 97 53 195.5t146 172.5l106 80l-45 74q-57 93 -81.5 146.5t-24.5 130.5t40.5 143t110.5 102.5t158.5 36.5t157.5 -29q145 -60 145 -252q0 -98 -52.5 -170.5t-148.5 -153.5l-53 -45l289 -417q43 109 57 286h160q0 -50 -18 -140.5t-47 -173t-54 -116.5l189 -266 h-195l-98 139q-125 -119 -226 -149q-62 -19 -135 -19q-164 0 -261 69t-135 164t-38 192zM231 386q0 -120 78 -192.5t191 -72.5q139 0 262 141l-322 471q-93 -56 -151 -141.5t-58 -205.5zM365 1190q0 -70 88 -203l34 -49l39 37q70 68 100.5 111t30.5 108.5t-41.5 105 t-105.5 39.5t-104.5 -39.5t-40.5 -109.5z" />
<glyph unicode="'" horiz-adv-x="492" d="M178 952v525h135v-525h-135z" />
<glyph unicode="(" horiz-adv-x="494" d="M88 547q0 118 19 242t57 245q76 239 223 443h98q-225 -373 -225 -928q0 -376 128 -708q41 -108 97 -222h-98q-218 305 -279 685q-20 125 -20 243z" />
<glyph unicode=")" horiz-adv-x="494" d="M8 -381q225 372 225 930q0 484 -225 928h98q194 -270 265 -603q35 -164 35 -324.5t-34 -326.5q-70 -337 -266 -604h-98z" />
<glyph unicode="*" horiz-adv-x="721" d="M35 1196l45 119l219 -84v246h123v-246l219 84l45 -119l-231 -72l155 -192l-102 -78l-148 211l-147 -211l-102 78l155 192z" />
<glyph unicode="+" horiz-adv-x="1229" d="M96 455v137h451v455h135v-455h451v-137h-451v-455h-135v455h-451z" />
<glyph unicode="," horiz-adv-x="492" d="M152 0v219h188v-180q0 -98 -12 -161q-25 -142 -176 -183v96q52 26 71 61.5t19 98.5v49h-90z" />
<glyph unicode="-" horiz-adv-x="721" d="M111 506v162h499v-162h-499z" />
<glyph unicode="." horiz-adv-x="492" d="M152 0v219h188v-219h-188z" />
<glyph unicode="/" horiz-adv-x="569" d="M-20 -29l475 1534h135l-475 -1534h-135z" />
<glyph unicode="0" horiz-adv-x="983" d="M78 740.5q0 184.5 25 341.5t116 269.5t273 112.5q261 0 350 -232q41 -106 52 -228t11 -311t-25 -344t-116 -266.5t-272 -111.5q-360 0 -402 461q-12 124 -12 308.5zM258 795.5q0 -219.5 6.5 -321t29.5 -184.5q50 -181 198 -181t197 177q36 131 36 349t-7 325.5t-29 189.5 q-48 177 -197 177q-148 0 -198 -180q-36 -132 -36 -351.5z" />
<glyph unicode="1" horiz-adv-x="983" d="M137 1100v125q108 5 183 23q169 40 176 216h122v-1464h-172v1100h-309z" />
<glyph unicode="2" horiz-adv-x="983" d="M86 0q0 187 84.5 330.5t228.5 269.5l119 100q101 89 147 165t46 186t-52.5 187t-158.5 77q-144 0 -187 -100.5t-43 -215.5h-180q0 299 176 407q93 58 241 58t235 -66q149 -111 149 -325q0 -201 -111 -337q-54 -66 -143 -144l-205 -180q-127 -108 -158 -250h623v-162h-811 z" />
<glyph unicode="3" horiz-adv-x="983" d="M80 379v18h180q0 -113 58.5 -200.5t173.5 -87.5q139 0 198 119q33 68 33 182q0 278 -262 278h-92v137h90q111 0 166 71.5t55 186.5q0 244 -188 244q-209 0 -209 -285h-181q0 268 169 370q87 52 206 52t193 -34.5t115 -89.5q75 -102 75 -236.5t-58 -220.5t-167 -113v-4 q127 -25 197.5 -110t70.5 -232q0 -207 -104.5 -330t-292.5 -123t-280.5 80.5t-119 171t-26.5 156.5z" />
<glyph unicode="4" horiz-adv-x="983" d="M61 354v164l525 946h172v-962h164v-148h-164v-354h-172v354h-525zM217 502h369v678h-4z" />
<glyph unicode="5" horiz-adv-x="983" d="M82 377h180q0 -93 48.5 -180.5t158 -87.5t162.5 59q90 102 90 319q0 138 -57.5 235t-184.5 97q-57 0 -104.5 -27t-74 -62t-26.5 -54l-155 8l80 752h647v-162h-510l-57 -424l4 -4q92 110 254 110q108 0 191 -56q173 -118 173 -427q0 -307 -182 -435q-94 -67 -244.5 -67 t-240.5 70.5t-121 163t-31 172.5z" />
<glyph unicode="6" horiz-adv-x="983" d="M72 651.5q0 180.5 11.5 306t55 244t134 190.5t240.5 72t233 -66q133 -108 133 -286h-181q0 94 -50 154.5t-150 60.5t-156 -85q-90 -135 -90 -355v-115h4q51 90 146 136q55 28 154 28t184 -58q171 -116 171 -407q0 -305 -186 -435q-92 -65 -223 -65q-187 0 -281.5 102.5 t-121.5 250t-27 328zM272 446q0 -137 54 -237t176 -100t175.5 99t53.5 214t-19 189.5t-70.5 124.5t-139.5 50q-230 0 -230 -340z" />
<glyph unicode="7" horiz-adv-x="983" d="M78 1274v162h827v-152q-166 -216 -284 -502q-164 -397 -199 -782h-201q45 354 176 666q129 323 344 608h-663z" />
<glyph unicode="8" horiz-adv-x="983" d="M76 403q0 291 256 377q-145 61 -188 174q-23 59 -23 156t45 182q90 172 326 172q235 0 326 -172q44 -85 44 -182t-22 -156q-44 -113 -189 -174q256 -88 256 -377q0 -250 -170 -368q-92 -64 -245 -64q-222 0 -319 129.5t-97 302.5zM256 433.5q0 -113.5 24 -181.5 q53 -143 212 -143q157 0 210 143q25 68 25 158q0 188 -102 263q-52 38 -133 38q-120 0 -178 -82t-58 -195.5zM301 1088.5q0 -109.5 47.5 -175t142.5 -65.5t143 66.5t48 174t-47.5 173t-143.5 65.5t-143 -64.5t-47 -174z" />
<glyph unicode="9" horiz-adv-x="983" d="M72 965q0 144 47 257t139 177.5t223 64.5q268 0 349 -193.5t81 -500.5q0 -166 -12 -294t-55 -244.5t-133.5 -188.5t-240.5 -72t-232.5 66.5t-108 146t-25.5 140.5h181q0 -131 87 -188q42 -27 103 -27q110 0 167 85q89 134 89 355v115h-4q-52 -91 -146 -136 q-57 -28 -130 -28q-123 0 -209 58q-170 116 -170 407zM252 989q0 -340 229.5 -340t229.5 340q0 141 -53 239.5t-176.5 98.5t-176.5 -98.5t-53 -239.5z" />
<glyph unicode=":" horiz-adv-x="492" d="M152 0v219h188v-219h-188zM152 827v220h188v-220h-188z" />
<glyph unicode=";" horiz-adv-x="492" d="M152 0v219h188v-180q0 -98 -12 -161q-25 -142 -176 -183v96q52 26 71 61.5t19 98.5v49h-90zM152 827v220h188v-220h-188z" />
<glyph unicode="&#x3c;" horiz-adv-x="1229" d="M96 461v125l1037 477v-137l-877 -402l877 -403v-137z" />
<glyph unicode="=" horiz-adv-x="1229" d="M96 244v137h1037v-137h-1037zM96 666v137h1037v-137h-1037z" />
<glyph unicode="&#x3e;" horiz-adv-x="1229" d="M96 -16v137l877 403l-877 402v137l1037 -477v-125z" />
<glyph unicode="?" d="M72 1042q0 273 168 390q86 61 208 61t210 -50t134 -138t46 -185q0 -183 -103 -307q-33 -40 -160 -182q-65 -84 -65 -207v-39h-160q0 86 6.5 145t34.5 112t85 120t120 141q35 46 48 92t13 114.5t-23 120.5q-49 116 -175 116q-215 0 -215 -304h-172zM338 0v199h188v-199 h-188z" />
<glyph unicode="@" horiz-adv-x="1638" d="M59 739q0 318 223 543q221 223 537 223q333 0 547 -179q101 -85 157 -204t56 -272t-79.5 -287t-202.5 -207t-248.5 -73t-141.5 123h-4q-55 -59 -113.5 -91t-158 -32t-187.5 89t-88 228t61 274.5t171 219.5t248 84q111 0 178 -73q36 -39 55 -97h4l45 131h115l-172 -584 q-19 -67 -19 -92t16.5 -40t43.5 -15q90 0 169 64.5t126 168.5t47 219.5t-48 211.5t-132 164q-178 146 -445 146q-264 0 -444 -186t-180 -457q0 -180 82 -328t226 -232.5t316 -84.5q286 0 459 134q57 43 96 98h129q-98 -174 -272.5 -264.5t-396 -90.5t-396.5 103t-277 279 t-102 386zM492 612q0 -93 54.5 -148.5t140 -55.5t158.5 73t114.5 177.5t41.5 185t-46 145t-129.5 64.5t-163 -69.5t-125 -174t-45.5 -197.5z" />
<glyph unicode="A" horiz-adv-x="1024" d="M-16 0l422 1477h241l393 -1477h-188l-104 406h-467l-109 -406h-188zM317 555h394l-187 713h-4z" />
<glyph unicode="B" horiz-adv-x="1063" d="M119 0v1477h448q260 0 345 -201q30 -72 30 -158t-25.5 -150t-74 -111t-113.5 -66v-5q260 -62 260 -364q0 -291 -214 -378q-106 -44 -259 -44h-397zM299 150h246q133 0 194.5 76.5t61.5 208.5t-79 199.5t-208 67.5h-215v-552zM299 840h207q92 0 170 48.5t78 196.5 q0 242 -252 242h-203v-487z" />
<glyph unicode="C" horiz-adv-x="1063" d="M98 739q0 217 36.5 384t141.5 274.5t293 107.5q419 0 432 -458h-188q-7 311 -244 311q-218 0 -262 -294q-20 -134 -20 -325.5t20 -325.5t81.5 -213t172 -79t166 55.5t75 139.5t23.5 190h189q-21 -331 -196 -462q-97 -73 -247 -73t-245 64.5t-144 172.5q-84 185 -84 531z " />
<glyph unicode="D" horiz-adv-x="1139" d="M137 0v1477h391q313 0 424 -209q52 -98 70 -224.5t18 -319t-42.5 -356.5t-152 -266t-298.5 -102h-410zM317 150h189q145 0 221 85.5t100.5 212.5t24.5 275t-9 242.5t-43 178.5q-72 183 -294 183h-189v-1177z" />
<glyph unicode="E" horiz-adv-x="948" d="M119 0v1477h755v-162h-575v-463h543v-162h-543v-528h600v-162h-780z" />
<glyph unicode="F" d="M119 0v1477h755v-162h-575v-463h543v-162h-543v-690h-180z" />
<glyph unicode="G" horiz-adv-x="1100" d="M98 739q0 217 36.5 384t141.5 274.5t293.5 107.5t284 -84t120 -175t27.5 -179h-188q-15 291 -244 291q-218 0 -262 -294q-20 -134 -20 -325.5t20 -325.5t81.5 -213t180.5 -79q165 0 217 144.5t52 352.5h-289v150h452v-768h-135v201h-4q-30 -99 -115 -164.5t-211 -65.5 t-215.5 61t-138.5 170q-84 189 -84 537z" />
<glyph unicode="H" horiz-adv-x="1100" d="M119 0v1477h180v-605h502v605h180v-1477h-180v711h-502v-711h-180z" />
<glyph unicode="I" horiz-adv-x="418" d="M119 0v1477h180v-1477h-180z" />
<glyph unicode="J" horiz-adv-x="872" d="M45 307v123h172v-106q0 -203 168 -203q147 0 175 134q13 66 13 175v1047h181v-1053q0 -144 -30 -242q-66 -211 -337 -211q-115 0 -193 46q-149 88 -149 290z" />
<glyph unicode="K" horiz-adv-x="1024" d="M119 0v1477h180v-715h4l506 715h201l-443 -617l480 -860h-201l-395 711l-152 -209v-502h-180z" />
<glyph unicode="L" d="M119 0v1477h180v-1315h594v-162h-774z" />
<glyph unicode="M" horiz-adv-x="1442" d="M123 0v1477h303l293 -1172h4l293 1172h303v-1477h-180v1290h-4l-324 -1290h-180l-324 1290h-4v-1290h-180z" />
<glyph unicode="N" horiz-adv-x="1139" d="M119 0v1477h233l484 -1233h4v1233h180v-1477h-248l-469 1196h-4v-1196h-180z" />
<glyph unicode="O" horiz-adv-x="1139" d="M98 738.5q0 217.5 36.5 384.5t141.5 274.5t293 107.5t293 -107.5t141.5 -274.5t36.5 -384.5t-37 -385t-141.5 -275t-293 -107.5t-292.5 108t-141 275t-37 384.5zM287 738.5q0 -191.5 20 -325.5t81.5 -213t180.5 -79t180.5 79t82 212t20.5 326.5t-20 327.5 q-45 292 -263 292t-262 -294q-20 -134 -20 -325.5z" />
<glyph unicode="P" horiz-adv-x="985" d="M119 0v1477h373q106 0 200.5 -22t173 -116t78.5 -286q0 -135 -53.5 -231.5t-149 -146.5t-219.5 -50h-223v-625h-180zM299 774h215q104 0 173 73.5t69 213.5q0 266 -254 266h-203v-553z" />
<glyph unicode="Q" horiz-adv-x="1139" d="M98 738.5q0 217.5 36.5 384.5t141.5 274.5t293 107.5t293 -107.5t141.5 -274.5t36.5 -369t-25 -348t-93 -250l147 -138l-100 -106l-148 133q-99 -74 -270 -74t-275 108t-141 275t-37 384.5zM287 738.5q0 -191.5 20 -325.5t81.5 -213t180.5 -79q81 0 133 35l-141 127 l101 112l135 -125q55 137 55 469q0 193 -20 327q-45 292 -263 292t-262 -294q-20 -134 -20 -325.5z" />
<glyph unicode="R" horiz-adv-x="1063" d="M119 0v1477h473q235 0 329 -172q46 -84 46 -185t-22 -178q-49 -169 -204 -207v-4q92 -11 146.5 -79.5t60.5 -168.5l13 -252q5 -111 23 -159t54 -72h-217q-39 41 -49 213l-12 229q-13 171 -114 202q-43 13 -103 13h-244v-657h-180zM299 807h178q81 0 142.5 14.5t110 77 t48.5 182.5t-69 183t-195 63h-215v-520z" />
<glyph unicode="S" horiz-adv-x="1024" d="M63 463h181q0 -106 16 -177t75.5 -118t157.5 -47t155 32t90.5 91t33.5 137q0 139 -82.5 195.5t-255 115.5t-262.5 142t-90 264q0 224 162 339q96 68 266 68q306 0 382 -231q26 -77 28 -180h-181q0 264 -227 264q-156 0 -214 -110q-28 -54 -28 -132q0 -137 79 -190 t254.5 -111t266.5 -140.5t91 -253.5t-67 -269q-123 -181 -388 -181q-246 0 -348 127q-95 118 -95 365z" />
<glyph unicode="T" horiz-adv-x="948" d="M16 1315v162h916v-162h-369v-1315h-180v1315h-367z" />
<glyph unicode="U" horiz-adv-x="1063" d="M102 438v1039h181v-1039q0 -166 57.5 -241.5t193 -75.5t191 76.5t55.5 240.5v1039h181v-1039q0 -217 -110 -342t-321 -125q-428 0 -428 467z" />
<glyph unicode="V" horiz-adv-x="946" d="M-4 1477h188l287 -1268h4l287 1268h188l-368 -1477h-230z" />
<glyph unicode="W" horiz-adv-x="1479" d="M16 1477h181l223 -1209h4l207 1209h217l207 -1209h4l223 1209h180l-301 -1477h-219l-201 1196h-4l-211 -1196h-219z" />
<glyph unicode="X" horiz-adv-x="985" d="M4 0l389 752l-360 725h200l267 -553l268 553h188l-364 -725l389 -752h-201l-291 592l-296 -592h-189z" />
<glyph unicode="Y" horiz-adv-x="946" d="M-4 1477h199l278 -691l289 691h188l-387 -897v-580h-180v580z" />
<glyph unicode="Z" horiz-adv-x="948" d="M47 0v154l658 1161h-621v162h809v-168l-657 -1147h665v-162h-854z" />
<glyph unicode="[" horiz-adv-x="530" d="M160 -381v1858h366v-138h-207v-1583h207v-137h-366z" />
<glyph unicode="\" horiz-adv-x="569" d="M-20 1505h135l475 -1534h-135z" />
<glyph unicode="]" horiz-adv-x="530" d="M4 -244h207v1583h-207v138h367v-1858h-367v137z" />
<glyph unicode="^" horiz-adv-x="1229" d="M96 541l469 895h99l469 -895h-136l-383 745l-383 -745h-135z" />
<glyph unicode="_" horiz-adv-x="1024" d="M0 -156h1024v-102h-1024v102z" />
<glyph unicode="`" horiz-adv-x="418" d="M-33 1556h201l143 -294h-123z" />
<glyph unicode="a" d="M59 293q0 244 207 307l232 70q107 33 119 86q6 27 6 80t-20 90q-41 75 -159.5 75t-152 -71.5t-33.5 -145.5v-10h-172q0 188 86 276q87 89 261.5 89t247.5 -50.5t90 -116.5t17 -153v-618q0 -59 14.5 -73.5t40 -14.5t40.5 10v-125q-65 -10 -105.5 -10t-70.5 7 q-73 17 -80 136h-4q-42 -75 -114 -117.5t-151 -42.5q-149 0 -224 84.5t-75 237.5zM240 297q0 -188 155 -188q86 0 153.5 63.5t67.5 146.5v285q-28 -29 -60.5 -42.5t-115.5 -41t-122 -50.5q-78 -47 -78 -173z" />
<glyph unicode="b" horiz-adv-x="948" d="M113 0v1477h172v-494h4q30 71 99.5 113.5t154.5 42.5q137 0 211.5 -91t98.5 -219t24 -262.5t-21 -238t-65 -184.5q-94 -173 -273 -173q-116 0 -192 85q-34 38 -45 81h-5v-137h-163zM274 552q0 -197 47.5 -314t167 -117t163.5 112.5t44 325t-43.5 321.5t-163 109 t-167.5 -120t-48 -317z" />
<glyph unicode="c" horiz-adv-x="872" d="M66 541q0 261 72 411q41 83 120 135t207.5 52t206.5 -61q135 -103 135 -306h-172q0 134 -73 196q-39 33 -101 33t-109 -33q-106 -76 -106 -425q0 -177 37 -305.5t172 -128.5q100 0 140 81.5t40 194.5h172q0 -100 -35.5 -194t-116 -157t-211.5 -63t-215 63 q-163 121 -163 507z" />
<glyph unicode="d" horiz-adv-x="948" d="M72 555q0 147 25 275t102 218.5t219 90.5q77 0 145 -43.5t96 -112.5h5v494h172v-1477h-164v137h-4q-17 -65 -85 -115.5t-153 -50.5q-358 0 -358 584zM252 555q0 -216 44 -325t157 -109q169 0 205 198q16 91 16 236q0 434 -221 434q-113 0 -157 -109t-44 -325z" />
<glyph unicode="e" d="M76 541q0 261 72 411q41 83 120 135t199 52q225 0 296 -149.5t71 -385.5v-69h-578q0 -122 10.5 -208.5t57 -152t132 -65.5t127.5 43q70 72 70 213h172q0 -74 -33 -166t-116 -160t-200 -68t-190 35t-119 106q-91 140 -91 429zM262 670h391v61q0 110 -44 190t-152.5 80 t-151.5 -97.5t-43 -192.5v-41z" />
<glyph unicode="f" horiz-adv-x="530" d="M4 973v135h160v131q0 129 57 191.5t180 62.5h125v-147h-80q-56 0 -83 -25t-27 -82v-131h188v-135h-188v-973h-172v973h-160z" />
<glyph unicode="g" horiz-adv-x="948" d="M72 557.5q0 117.5 18 220t60 185.5q88 176 280 176q85 0 152.5 -50.5t85.5 -119.5h4v139h164v-1038q0 -237 -98 -344t-275 -107q-117 0 -229.5 49.5t-131.5 227.5h172q7 -71 56 -105.5t121 -34.5q134 0 173.5 70.5t39.5 177.5v146h-5q-27 -69 -95.5 -109.5t-151.5 -40.5 q-144 0 -220.5 98.5t-98 220t-21.5 239zM252 555q0 -405 199 -405q181 0 213 238q10 71 10 167q0 434 -221 434q-113 0 -157 -109t-44 -325z" />
<glyph unicode="h" horiz-adv-x="948" d="M113 0v1477h172v-494h4q34 66 110.5 111t153.5 45q129 0 191.5 -56t77 -128.5t14.5 -168.5v-786h-172v766q0 56 -9.5 104.5t-45 83.5t-112 35t-144.5 -56t-68 -167v-766h-172z" />
<glyph unicode="i" horiz-adv-x="418" d="M123 0v1108h172v-1108h-172zM123 1278v199h172v-199h-172z" />
<glyph unicode="j" horiz-adv-x="418" d="M-47 -225l63 -6q89 0 102 83q5 36 5 103v1153h172v-1217q0 -138 -62 -205t-200 -67q-2 0 -80 6v150zM123 1278v199h172v-199h-172z" />
<glyph unicode="k" d="M113 0v1477h172v-879h4l385 510h200l-333 -418l391 -690h-201l-305 549l-141 -174v-375h-172z" />
<glyph unicode="l" horiz-adv-x="418" d="M123 0v1477h172v-1477h-172z" />
<glyph unicode="m" horiz-adv-x="1479" d="M129 0v1108h164v-129h4q47 101 161 141q54 19 127.5 19t132 -42t83.5 -134q40 77 109.5 126.5t161.5 49.5t152 -34.5t86.5 -87t33 -106.5t6.5 -125v-786h-172v766q0 93 -27.5 158t-112 65t-149 -53t-64.5 -170v-766h-172v766q0 96 -27.5 159.5t-111.5 63.5t-148.5 -53 t-64.5 -170v-766h-172z" />
<glyph unicode="n" horiz-adv-x="948" d="M113 0v1108h163v-129h5q46 100 161 141q53 19 130.5 19t137.5 -34.5t86.5 -87t33 -106.5t6.5 -125v-786h-172v766q0 56 -9.5 104.5t-45 83.5t-112 35t-144.5 -56t-68 -167v-766h-172z" />
<glyph unicode="o" d="M59 534q0 148 18.5 251t62.5 183q96 171 315 171q316 0 377 -355q18 -104 18 -228.5t-19 -230.5t-63 -185q-97 -169 -313 -169q-151 0 -239 77.5t-122.5 207.5t-34.5 278zM240 556q0 -207 45 -327t168 -120t170 119t47 327.5t-45.5 327t-170 118.5t-169.5 -119t-45 -326z " />
<glyph unicode="p" horiz-adv-x="948" d="M113 -365v1473h163v-135h5q18 65 85 115.5t152 50.5q126 0 206 -71q153 -135 153 -493q0 -238 -75 -403q-92 -201 -284 -201q-73 0 -136 42t-93 114h-4v-492h-172zM274 566q0 -133 18 -228q42 -217 204 -217q147 0 182 206q18 101 18 237.5t-18 229.5q-36 195 -182 195 q-169 0 -206 -199q-16 -91 -16 -224z" />
<glyph unicode="q" horiz-adv-x="948" d="M72 575q0 357 152 493q80 71 206 71q85 0 152.5 -50t85.5 -116h4v135h164v-1473h-172v492h-5q-28 -71 -91 -113.5t-138 -42.5q-196 0 -277 170t-81 434zM252 564.5q0 -136.5 18 -237.5q35 -206 183 -206q221 0 221 434q0 144 -16 235q-37 199 -205 199q-147 0 -183 -195 q-18 -93 -18 -229.5z" />
<glyph unicode="r" horiz-adv-x="606" d="M113 0v1108h172v-164h4q43 92 97.5 143.5t121.5 51.5t94 -15v-168q-36 9 -87 9t-104.5 -29.5t-89.5 -89t-36 -146.5v-700h-172z" />
<glyph unicode="s" horiz-adv-x="834" d="M51 365h172q0 -118 45 -187t160 -69q97 0 151 71q31 40 31 103t-21.5 98.5t-58.5 58.5q-54 35 -169 73t-165 64t-87 87t-37 163.5t46 172.5q94 139 304 139q146 0 219.5 -57t93 -131t21.5 -167h-172q0 111 -36 164t-114.5 53t-134 -34t-55.5 -136q0 -86 80 -129 q35 -20 102 -41.5t123 -41t108 -48t88.5 -89.5t36.5 -163q0 -170 -96.5 -259t-257.5 -89q-242 0 -309.5 120t-67.5 274z" />
<glyph unicode="t" horiz-adv-x="530" d="M4 973v135h160v324h172v-324h190v-135h-190v-713q0 -67 23.5 -95t89.5 -28q12 0 75 6v-143q-66 -12 -145.5 -12t-128.5 24t-67.5 71t-18.5 124v766h-160z" />
<glyph unicode="u" horiz-adv-x="948" d="M113 324v784h172v-764q0 -94 29.5 -158.5t131.5 -64.5q50 0 101 23.5t84 74t33 125.5v764h172v-1108h-164v131h-4q-32 -74 -108.5 -117t-158.5 -43q-188 0 -238 99.5t-50 253.5z" />
<glyph unicode="v" horiz-adv-x="831" d="M20 1108h189l205 -889h4l205 889h188l-297 -1108h-197z" />
<glyph unicode="w" horiz-adv-x="1327" d="M20 1108h181l176 -905h4l186 905h203l182 -905h4l170 905h181l-260 -1108h-189l-192 905h-4l-185 -905h-201z" />
<glyph unicode="x" horiz-adv-x="831" d="M12 0l301 578l-280 530h188l199 -395l201 395h188l-287 -530l297 -578h-188l-219 438l-211 -438h-189z" />
<glyph unicode="y" horiz-adv-x="831" d="M20 1108h189l217 -889h4l193 889h188l-317 -1182q-27 -97 -54.5 -156t-83.5 -97q-55 -37 -147 -37h-7q-97 2 -126 6v137q36 -6 96 -6t91 28t48 78l33 98z" />
<glyph unicode="z" horiz-adv-x="797" d="M55 0v137l498 824h-473v147h661v-143l-491 -815h487v-150h-682z" />
<glyph unicode="{" horiz-adv-x="530" d="M4 485v125q69 0 112.5 61.5t43.5 168.5v368q0 188 109 244q50 25 112 25h145v-138h-104q-67 0 -85 -45.5t-18 -122.5v-356q0 -91 -32.5 -149t-75 -84.5t-72.5 -30.5v-4q31 -4 72.5 -30.5t74.5 -86.5t33 -149v-355q0 -78 18 -124t85 -46h104v-137h-145q-137 0 -191 111 q-30 59 -30 157v369q0 108 -43.5 168.5t-112.5 60.5z" />
<glyph unicode="|" horiz-adv-x="455" d="M160 -29v1534h135v-1534h-135z" />
<glyph unicode="}" horiz-adv-x="530" d="M4 -244h105q67 0 84.5 44.5t17.5 125.5v355q0 89 33 149t74.5 86.5t72.5 30.5v4q-30 4 -72.5 30.5t-75 84.5t-32.5 149v356q0 80 -17.5 124t-84.5 44h-105v138h146q97 0 159 -62.5t62 -206.5v-368q0 -107 43 -168.5t112 -61.5v-125q-69 0 -112 -60.5t-43 -168.5v-369 q0 -143 -62 -205.5t-159 -62.5h-146v137z" />
<glyph unicode="~" horiz-adv-x="1229" d="M115 477q62 88 125 140.5t138.5 52.5t116.5 -10.5t84.5 -34.5t91.5 -53q97 -60 154 -60q103 0 203 152l86 -93q-56 -83 -122.5 -138.5t-141.5 -55.5t-115.5 10.5t-84.5 34t-94 54.5q-95 59 -155 59t-108.5 -44.5t-91.5 -107.5z" />
<glyph horiz-adv-x="1802" d="M0 264q2 89 61 156t152 67q49 0 49 -49q0 -28 -48 -49.5t-71.5 -41.5t-23.5 -83t49 -98t123 -35q4 2 8 2q70 0 138.5 26t113.5 75t45 106.5t-30 114.5t-88 143.5t-88 150.5t-30 130q0 201 197 376q89 81 204 138t201.5 57t133.5 -37t47 -106q0 -22 -6 -43 q88 80 202.5 136t202 56t134 -37t46.5 -113q0 -141 -206 -307q-188 -141 -269 -141q-19 0 -38 14t-19 33l2 4q0 40 70 66q110 36 194 103q158 123 158 212q0 31 -19 48.5t-68.5 17.5t-134.5 -40t-154 -93.5t-127 -142t-58 -166t30.5 -141.5t90.5 -155.5t91 -151t31 -116.5 q0 -92 -64 -164.5t-162 -111.5t-187 -39q-191 0 -262 110q-61 -54 -149 -85t-179.5 -31t-160.5 33q-132 64 -132 202zM473 916q0 -70 20.5 -123t45 -94t76.5 -123t69 -119q61 37 96 37q62 0 62 -50q0 -19 -12.5 -29.5t-40 -21t-46.5 -21.5q-45 -28 -45 -114q6 -57 54 -89 t118 -32q4 2 9 2q70 0 138.5 26t113.5 75t45 106.5t-30 114.5t-88 143.5t-88 150.5t-30 131.5t23 133.5q-5 -4 -14 -14t-43.5 -37t-112 -72t-111.5 -45t-53 14t-19 33l2 4q0 40 70 66q108 35 207 110q145 121 145 205q0 31 -19 48.5t-67.5 17.5t-133 -39.5t-155.5 -94 t-128.5 -142.5t-57.5 -158zM1300 86q0 60 68 212t151 281.5t115 129.5q16 0 27.5 -10.5t11.5 -27t-55 -102.5q-142 -219 -209 -444q-14 -50 -24 -69t-34.5 -19t-37.5 15t-13 34zM1706 954q0 26 21 62t50.5 62t55.5 26q49 0 49 -49q0 -27 -21.5 -63.5t-51.5 -62.5t-56 -26 q-47 0 -47 51z" />
<glyph unicode="&#xa1;" horiz-adv-x="528" d="M170 -365l33 1094h123l32 -1094h-188zM170 913v199h188v-199h-188z" />
<glyph unicode="&#xa2;" horiz-adv-x="983" d="M121 530q0 124 13 220t50 182q82 188 281 207v143h86v-143q173 -11 251 -137q60 -96 60 -230h-172q0 86 -33 151t-106 78v-892q139 31 139 276h172q0 -149 -68 -263q-81 -132 -243 -151v-176h-86v176q-265 18 -325 331q-19 104 -19 228zM301 543q0 -169 20 -249.5 t53.5 -126t90.5 -58.5v892q-164 -41 -164 -458z" />
<glyph unicode="&#xa3;" horiz-adv-x="983" d="M39 123q119 96 186.5 182t67.5 191.5t-43 169.5h-195v125h144l-33 63q-68 136 -68 244.5t54.5 193t149 128.5t212 44t209.5 -46q192 -96 192 -374h-172q0 127 -55.5 205t-177.5 78q-156 0 -208 -114q-23 -49 -23 -106.5t28.5 -129.5t85.5 -186h336v-125h-291 q35 -68 35 -142t-36 -141.5t-92 -124t-132 -119.5l4 -4q114 58 168 58t131 -29q67 -31 125 -31t99 16t128 64l76 -139q-144 -103 -282 -103q-68 0 -148 30.5t-120 42t-86 11.5t-95 -22l-96 -45z" />
<glyph unicode="&#xa4;" horiz-adv-x="983" d="M37 346l96 96q-92 126 -92 274.5t92 274.5l-96 96l88 91l96 -99q116 95 270 95t271 -95l96 99l88 -91l-96 -96q92 -122 92 -274t-94 -273l98 -98l-86 -88l-98 100q-119 -96 -270.5 -96t-272.5 94l-96 -98zM188 706q0 -76 40.5 -149t110 -115.5t153 -42.5t153 42.5 t110 115.5t40.5 160.5t-40.5 160.5t-110.5 115.5t-142 42.5t-126.5 -23.5t-98 -68t-66.5 -103.5t-23 -135z" />
<glyph unicode="&#xa5;" horiz-adv-x="983" d="M18 1436h199l279 -670l288 670h181l-308 -701h226v-125h-281l-20 -45v-125h301v-123h-301v-317h-172v317h-301v123h301v125l-21 45h-280v125h225z" />
<glyph unicode="&#xa6;" horiz-adv-x="455" d="M160 -29v609h135v-609h-135zM160 897v608h135v-608h-135z" />
<glyph unicode="&#xa7;" horiz-adv-x="987" d="M61 662q0 104 48.5 166t152.5 128q-60 39 -95.5 107.5t-35.5 152.5t49.5 152t131 102.5t186.5 34.5t177 -33.5t108 -84t47 -97t16 -94.5h-180q0 110 -90 154q-42 20 -107.5 20t-111.5 -49t-46 -109t42 -102t122 -92l205 -125q121 -74 183.5 -145.5t62.5 -184.5 q0 -176 -183 -305q60 -37 89.5 -107t29.5 -159t-49 -162.5t-130 -111t-199 -37.5t-203 57.5t-117.5 140.5t-32.5 162h172q0 -97 52.5 -160t151 -63t137 58t38.5 118q0 114 -170 221l-231 145q-220 136 -220 302zM233 697.5q0 -51.5 21 -83.5q30 -48 123 -108l135 -86 l123 -84q119 70 119 189.5t-158 217.5l-225 140q-60 -43 -99 -88.5t-39 -97z" />
<glyph unicode="&#xa8;" horiz-adv-x="418" d="M-37 1311v209h160v-209h-160zM295 1311v209h160v-209h-160z" />
<glyph unicode="&#xa9;" horiz-adv-x="1638" d="M59 739q0 318 223 543q221 223 537 223q156 0 294.5 -58.5t243.5 -164.5t163.5 -246t58.5 -297t-58.5 -296.5t-164.5 -246.5t-245.5 -166t-291.5 -59q-206 0 -381 103t-277 279t-102 386zM195 739.5q0 -129.5 48.5 -248t136 -209t199.5 -139.5t260 -49t292 86 t228.5 235.5t84.5 303.5t-49 271.5t-134 204.5t-200 137t-242 50t-241 -50t-199.5 -137.5t-134.5 -206.5t-49 -248.5zM383 733q0 210 121 342q121 133 327 133q219 0 333 -144q56 -72 71 -177h-123q-10 54 -48 99q-82 97 -233 97q-94 0 -165 -46.5t-109.5 -126.5 t-38.5 -177.5t38 -177.5t109 -127t156 -47t144.5 25.5t98 71t48.5 100.5h123q-15 -103 -71 -176q-115 -146 -333 -146q-207 0 -327 134q-121 134 -121 343z" />
<glyph unicode="&#xaa;" horiz-adv-x="592" d="M16 947q0 81 35.5 127.5t112.5 68.5l149 41q55 16 66.5 33.5t11.5 58.5q0 90 -110 90q-78 0 -99.5 -39.5t-21.5 -81.5v-8h-123q0 123 59 175t180 52t168.5 -32t58.5 -73t11 -93v-365q0 -27 6 -41t24.5 -14t30.5 6v-86q-24 -6 -77 -6q-100 0 -103 94h-4q-24 -44 -72.5 -69 t-124.5 -25t-127 53t-51 134zM152 961q0 -103 94 -103q56 0 100.5 35.5t44.5 79.5v157q-19 -18 -52 -28.5t-76.5 -23t-66.5 -28.5q-44 -30 -44 -89z" />
<glyph unicode="&#xab;" horiz-adv-x="797" d="M100 506v162l291 297v-183l-192 -194l192 -195v-182zM406 506v162l290 297v-183l-192 -194l192 -195v-182z" />
<glyph unicode="&#xac;" horiz-adv-x="1229" d="M96 666v137h1037v-584h-136v447h-901z" />
<glyph unicode="&#xad;" horiz-adv-x="721" d="M111 506v162h499v-162h-499z" />
<glyph unicode="&#xae;" horiz-adv-x="1638" d="M59 739q0 318 223 543q221 223 537 223q156 0 294.5 -58.5t243.5 -164.5t163.5 -246t58.5 -297t-58.5 -296.5t-164.5 -246.5t-245.5 -166t-291.5 -59q-206 0 -381 103t-277 279t-102 386zM195 739.5q0 -129.5 48.5 -248t136 -209t199.5 -139.5t260 -49t292 86 t228.5 235.5t84.5 303.5t-49 271.5t-134 204.5t-200 137t-242 50t-241 -50t-199.5 -137.5t-134.5 -206.5t-49 -248.5zM516 285v899h344q303 0 303 -264q0 -112 -66 -174.5t-173 -73.5l254 -387h-136l-245 377h-146v-377h-135zM651 786h146q114 0 172.5 25.5t58.5 110 t-52.5 111t-139.5 26.5h-185v-273z" />
<glyph unicode="&#xaf;" horiz-adv-x="418" d="M-61 1356v110h540v-110h-540z" />
<glyph unicode="&#xb0;" horiz-adv-x="819" d="M104 1157q0 88 39.5 157.5t109 109.5t157.5 40t157 -40t108.5 -109.5t39.5 -157.5t-39.5 -158.5t-108.5 -110.5t-157 -40q-133 0 -219.5 87.5t-86.5 221.5zM215 1142.5q0 -66.5 57.5 -124t123 -57.5t110.5 27q98 56 98 169q0 52 -26 97.5t-71.5 72.5t-97 27t-96.5 -26.5 t-71.5 -72.5t-26.5 -112.5z" />
<glyph unicode="&#xb1;" horiz-adv-x="1229" d="M96 0v137h1037v-137h-1037zM96 610v138h451v299h135v-299h451v-138h-451v-299h-135v299h-451z" />
<glyph unicode="&#xb2;" horiz-adv-x="639" d="M41 1184q0 129 67 204.5t204.5 75.5t211.5 -61t74 -165.5t-40 -168.5t-126 -131l-127 -104q-72 -58 -96 -132h369v-122h-535q0 112 54 196t151 166l76 62q65 52 96 98t31 115q0 122 -136 122q-127 0 -127 -155h-147z" />
<glyph unicode="&#xb3;" horiz-adv-x="639" d="M33 809v10h147q0 -55 37 -99t98 -44t102.5 35.5t41.5 111.5q0 158 -164 158h-57v111h49q71 0 109 39.5t38 96.5t-28.5 91.5t-83.5 34.5q-127 0 -127 -144h-148q0 254 279 254q143 0 199.5 -68t56.5 -148.5t-44.5 -133t-127.5 -70.5v-4q91 -14 143.5 -64t52.5 -158.5 t-69 -180.5t-226 -72t-217.5 86.5t-60.5 157.5z" />
<glyph unicode="&#xb4;" horiz-adv-x="418" d="M106 1262l144 294h201l-222 -294h-123z" />
<glyph unicode="&#xb5;" horiz-adv-x="948" d="M113 -365v1473h172v-764q0 -94 29.5 -158.5t131.5 -64.5q50 0 101 23.5t84 74t33 125.5v764h172v-1108h-164v131h-4q-32 -74 -108.5 -117t-158 -43t-116.5 29v-365h-172z" />
<glyph unicode="&#xb6;" horiz-adv-x="1139" d="M74 1063.5q0 117.5 60 214.5q123 199 423 199h420v-1766h-135v1655h-205v-1655h-135v955q-122 0 -220 51t-153 140t-55 206.5z" />
<glyph unicode="&#xb8;" horiz-adv-x="418" d="M-2 -397l31 69q7 -2 62 -13t69 -11q112 0 112 86q0 34 -28 55t-77 21t-69 -15l-30 37l120 180h86l-84 -125l5 -4q30 13 76.5 13t97.5 -38.5t51 -103.5t-31 -106q-65 -86 -194 -86t-197 41z" />
<glyph unicode="&#xb9;" horiz-adv-x="639" d="M66 1227v98q106 0 167 27t64 112h100v-884h-135v647h-196z" />
<glyph unicode="&#xba;" horiz-adv-x="592" d="M33 1114q0 350 260 350q266 0 266 -350q0 -160 -59.5 -257t-205 -97t-203.5 97.5t-58 256.5zM168 1112q0 -254 125 -254q131 0 131 254t-131 254q-125 0 -125 -254z" />
<glyph unicode="&#xbb;" horiz-adv-x="797" d="M100 211v182l193 195l-193 194v183l291 -297v-162zM406 211v182l192 195l-192 194v183l290 -297v-162z" />
<glyph unicode="&#xbc;" horiz-adv-x="1477" d="M66 1227v98q106 0 167 27t64 112h100v-884h-135v647h-196zM190 -63l889 1562h123l-889 -1562h-123zM819 205v125l328 555h147v-568h97v-112h-97v-205h-135v205h-340zM930 317h229v381h-4z" />
<glyph unicode="&#xbd;" horiz-adv-x="1477" d="M61 1227v98q107 0 168 27t64 112h100v-884h-135v647h-197zM152 -63l888 1562h123l-889 -1562h-122zM858 604q0 281 285 281q124 0 198 -61t74 -166t-40 -169t-126 -131l-127 -104q-72 -58 -96 -129h369v-125h-535q0 143 101 260q46 54 104 102l76 62q66 52 96.5 99 t30.5 114q0 125 -135 125q-127 0 -127 -158h-148z" />
<glyph unicode="&#xbe;" horiz-adv-x="1477" d="M41 809v10h147q0 -55 37 -99t98 -44t102.5 35.5t41.5 111.5q0 158 -164 158h-57v111h49q71 0 109 39.5t38 96t-29 91.5t-83 35q-127 0 -127 -144h-148q0 254 279 254q143 0 199.5 -68t56.5 -148.5t-44.5 -133t-127.5 -70.5v-4q196 -30 196 -204q0 -127 -69 -199t-226 -72 t-217.5 86.5t-60.5 157.5zM297 -63l889 1562h123l-889 -1562h-123zM864 205v125l328 555h147v-568h97v-112h-97v-205h-135v205h-340zM975 317h229v381h-4z" />
<glyph unicode="&#xbf;" d="M72 8q0 165 102 291q13 17 79 91t81 91q65 87 65 207v41h160q0 -181 -31.5 -240t-69 -106.5t-80.5 -96.5t-72 -87q-54 -73 -54 -201q0 -138 90 -198q46 -31 109 -31q215 0 215 301h172q0 -198 -92 -319q-101 -132 -289 -132q-180 0 -285 112q-100 108 -100 277zM383 913 v199h188v-199h-188z" />
<glyph unicode="&#xc0;" horiz-adv-x="1024" d="M-16 0l422 1477h241l393 -1477h-188l-104 406h-467l-109 -406h-188zM285 1851h200l144 -295h-123zM317 555h394l-187 713h-4z" />
<glyph unicode="&#xc1;" horiz-adv-x="1024" d="M-16 0l422 1477h241l393 -1477h-188l-104 406h-467l-109 -406h-188zM317 555h394l-187 713h-4zM424 1556l143 295h201l-221 -295h-123z" />
<glyph unicode="&#xc2;" horiz-adv-x="1024" d="M-16 0l422 1477h241l393 -1477h-188l-104 406h-467l-109 -406h-188zM242 1556l207 295h157l205 -295h-160l-125 183l-125 -183h-159zM317 555h394l-187 713h-4z" />
<glyph unicode="&#xc3;" horiz-adv-x="1024" d="M-16 0l422 1477h241l393 -1477h-188l-104 406h-467l-109 -406h-188zM225 1581q0 93 55 161t136 68q45 0 92.5 -23t70.5 -33q45 -21 73 -21t42 25.5t23 66.5h110q0 -51 -20.5 -106t-61 -89.5t-85.5 -34.5t-78.5 13t-91 40t-83.5 27t-45.5 -29.5t-25.5 -64.5h-111zM317 555 h394l-187 713h-4z" />
<glyph unicode="&#xc4;" horiz-adv-x="1024" d="M-16 0l422 1477h241l393 -1477h-188l-104 406h-467l-109 -406h-188zM281 1606v209h159v-209h-159zM317 555h394l-187 713h-4zM612 1606v209h160v-209h-160z" />
<glyph unicode="&#xc5;" horiz-adv-x="1024" d="M-16 0l422 1477h241l393 -1477h-188l-104 406h-467l-109 -406h-188zM317 555h394l-187 713h-4zM324 1722q0 84 59.5 144.5t143 60.5t143 -59.5t59.5 -145.5t-60 -145t-142.5 -59t-142.5 60t-60 144zM410 1723q0 -47 35 -82t82 -35t81.5 34.5t34.5 82.5t-34 82t-82 34 t-82.5 -34.5t-34.5 -81.5z" />
<glyph unicode="&#xc6;" horiz-adv-x="1479" d="M-16 0l565 1477h856v-162h-545v-463h512v-162h-512v-528h570v-162h-750v406h-358l-150 -406h-188zM373 555h307v772h-21z" />
<glyph unicode="&#xc7;" horiz-adv-x="1063" d="M98 772q0 184 36.5 351t141.5 274.5t293 107.5q419 0 432 -458h-188q-7 311 -244 311q-218 0 -262 -294q-20 -134 -20 -325.5t20 -325.5t81.5 -213t172 -79t166 55.5t75 139.5t23.5 190h189q-21 -371 -238 -488q-81 -44 -192 -47l-56 -84l4 -4q32 13 78 13t97 -38.5 t51 -103.5t-31 -106q-65 -86 -194 -86t-197 41l31 69q7 -2 62 -13t69 -11q112 0 112 86q0 34 -28 55t-77 21t-69 -15l-30 37l94 143q-334 42 -388 491q-14 122 -14 306z" />
<glyph unicode="&#xc8;" horiz-adv-x="948" d="M119 0v1477h755v-162h-575v-463h543v-162h-543v-528h600v-162h-780zM258 1851h201l143 -295h-123z" />
<glyph unicode="&#xc9;" horiz-adv-x="948" d="M119 0v1477h755v-162h-575v-463h543v-162h-543v-528h600v-162h-780zM397 1556l144 295h200l-221 -295h-123z" />
<glyph unicode="&#xca;" horiz-adv-x="948" d="M119 0v1477h755v-162h-575v-463h543v-162h-543v-528h600v-162h-780zM215 1556l207 295h158l204 -295h-159l-125 183l-125 -183h-160z" />
<glyph unicode="&#xcb;" horiz-adv-x="948" d="M119 0v1477h755v-162h-575v-463h543v-162h-543v-528h600v-162h-780zM254 1606v209h160v-209h-160zM586 1606v209h159v-209h-159z" />
<glyph unicode="&#xcc;" horiz-adv-x="418" d="M-33 1851h201l143 -295h-123zM119 0v1477h180v-1477h-180z" />
<glyph unicode="&#xcd;" horiz-adv-x="418" d="M106 1556l144 295h201l-222 -295h-123zM119 0v1477h180v-1477h-180z" />
<glyph unicode="&#xce;" horiz-adv-x="418" d="M-76 1556l207 295h158l205 -295h-160l-125 183l-125 -183h-160zM119 0v1477h180v-1477h-180z" />
<glyph unicode="&#xcf;" horiz-adv-x="418" d="M-37 1606v209h160v-209h-160zM119 0v1477h180v-1477h-180zM295 1606v209h160v-209h-160z" />
<glyph unicode="&#xd0;" horiz-adv-x="1139" d="M18 702v138h119v637h391q313 0 424 -209q52 -98 70 -224.5t18 -319t-42.5 -356.5t-152 -266t-298.5 -102h-410v702h-119zM317 150h189q145 0 221 85.5t100.5 212.5t24.5 275t-9 242.5t-43 178.5q-72 183 -294 183h-189v-487h275v-138h-275v-552z" />
<glyph unicode="&#xd1;" horiz-adv-x="1139" d="M119 0v1477h233l484 -1233h4v1233h180v-1477h-248l-469 1196h-4v-1196h-180zM268 1581q0 93 55 161t136 68q45 0 92.5 -23t70.5 -33q43 -21 72 -21t43 25.5t23 66.5h110q0 -51 -20.5 -106t-61 -89.5t-85.5 -34.5t-78.5 13t-91 40t-83.5 27t-45.5 -29.5t-25.5 -64.5h-111z " />
<glyph unicode="&#xd2;" horiz-adv-x="1139" d="M98 738.5q0 217.5 36.5 384.5t141.5 274.5t293 107.5t293 -107.5t141.5 -274.5t36.5 -384.5t-37 -385t-141.5 -275t-293 -107.5t-292.5 108t-141 275t-37 384.5zM287 738.5q0 -191.5 20 -325.5t81.5 -213t180.5 -79t180.5 79t82 212t20.5 326.5t-20 327.5 q-45 292 -263 292t-262 -294q-20 -134 -20 -325.5zM328 1851h200l144 -295h-123z" />
<glyph unicode="&#xd3;" horiz-adv-x="1139" d="M98 738.5q0 217.5 36.5 384.5t141.5 274.5t293 107.5t293 -107.5t141.5 -274.5t36.5 -384.5t-37 -385t-141.5 -275t-293 -107.5t-292.5 108t-141 275t-37 384.5zM287 738.5q0 -191.5 20 -325.5t81.5 -213t180.5 -79t180.5 79t82 212t20.5 326.5t-20 327.5 q-45 292 -263 292t-262 -294q-20 -134 -20 -325.5zM467 1556l143 295h201l-221 -295h-123z" />
<glyph unicode="&#xd4;" horiz-adv-x="1139" d="M98 738.5q0 217.5 36.5 384.5t141.5 274.5t293 107.5t293 -107.5t141.5 -274.5t36.5 -384.5t-37 -385t-141.5 -275t-293 -107.5t-292.5 108t-141 275t-37 384.5zM285 1556l207 295h157l205 -295h-160l-125 183l-125 -183h-159zM287 738.5q0 -191.5 20 -325.5t81.5 -213 t180.5 -79t180.5 79t82 212t20.5 326.5t-20 327.5q-45 292 -263 292t-262 -294q-20 -134 -20 -325.5z" />
<glyph unicode="&#xd5;" horiz-adv-x="1139" d="M98 738.5q0 217.5 36.5 384.5t141.5 274.5t293 107.5t293 -107.5t141.5 -274.5t36.5 -384.5t-37 -385t-141.5 -275t-293 -107.5t-292.5 108t-141 275t-37 384.5zM268 1581q0 93 55 161t136 68q45 0 92.5 -23t70.5 -33q43 -21 72 -21t43 25.5t23 66.5h110 q0 -51 -20.5 -106t-61 -89.5t-85.5 -34.5t-78.5 13t-91 40t-83.5 27t-45.5 -29.5t-25.5 -64.5h-111zM287 738.5q0 -191.5 20 -325.5t81.5 -213t180.5 -79t180.5 79t82 212t20.5 326.5t-20 327.5q-45 292 -263 292t-262 -294q-20 -134 -20 -325.5z" />
<glyph unicode="&#xd6;" horiz-adv-x="1139" d="M98 738.5q0 217.5 36.5 384.5t141.5 274.5t293 107.5t293 -107.5t141.5 -274.5t36.5 -384.5t-37 -385t-141.5 -275t-293 -107.5t-292.5 108t-141 275t-37 384.5zM287 738.5q0 -191.5 20 -325.5t81.5 -213t180.5 -79t180.5 79t82 212t20.5 326.5t-20 327.5 q-45 292 -263 292t-262 -294q-20 -134 -20 -325.5zM324 1606v209h159v-209h-159zM655 1606v209h160v-209h-160z" />
<glyph unicode="&#xd7;" horiz-adv-x="1229" d="M158 150l370 374l-370 373l86 88l370 -373l369 373l88 -88l-371 -373l371 -374l-88 -89l-369 373l-370 -373z" />
<glyph unicode="&#xd8;" horiz-adv-x="1139" d="M98 739q0 217 36.5 384t141.5 274.5t293 107.5q136 0 228 -57l49 123l110 -47l-65 -158q85 -100 117 -259.5t32 -372.5t-37 -380.5t-141.5 -275t-292.5 -107.5q-133 0 -225 58l-53 -127l-111 49l68 166q-150 176 -150 622zM287 766q0 -307 43 -449l403 977 q-64 64 -172.5 64t-171 -79.5t-82.5 -214t-20 -298.5zM408 182q59 -61 169.5 -61t172 79t82 212t20.5 298q0 320 -43 453z" />
<glyph unicode="&#xd9;" horiz-adv-x="1063" d="M102 438v1039h181v-1039q0 -166 57.5 -241.5t193 -75.5t191 76.5t55.5 240.5v1039h181v-1039q0 -217 -110 -342t-321 -125q-428 0 -428 467zM291 1851h201l143 -295h-123z" />
<glyph unicode="&#xda;" horiz-adv-x="1063" d="M102 438v1039h181v-1039q0 -166 57.5 -241.5t193 -75.5t191 76.5t55.5 240.5v1039h181v-1039q0 -217 -110 -342t-321 -125q-428 0 -428 467zM430 1556l143 295h201l-221 -295h-123z" />
<glyph unicode="&#xdb;" horiz-adv-x="1063" d="M102 438v1039h181v-1039q0 -166 57.5 -241.5t193 -75.5t191 76.5t55.5 240.5v1039h181v-1039q0 -217 -110 -342t-321 -125q-428 0 -428 467zM248 1556l207 295h157l205 -295h-160l-125 183l-124 -183h-160z" />
<glyph unicode="&#xdc;" horiz-adv-x="1063" d="M102 438v1039h181v-1039q0 -166 57.5 -241.5t193 -75.5t191 76.5t55.5 240.5v1039h181v-1039q0 -217 -110 -342t-321 -125q-428 0 -428 467zM287 1606v209h159v-209h-159zM618 1606v209h160v-209h-160z" />
<glyph unicode="&#xdd;" horiz-adv-x="946" d="M-4 1477h199l278 -691l289 691h188l-387 -897v-580h-180v580zM371 1556l143 295h201l-221 -295h-123z" />
<glyph unicode="&#xde;" horiz-adv-x="985" d="M119 0v1477h180v-289h193q106 0 200.5 -22t173 -116t78.5 -286q0 -136 -53 -232.5t-149 -146t-220 -49.5h-223v-336h-180zM299 483h215q105 0 173.5 74t68.5 215q0 266 -254 266h-203v-555z" />
<glyph unicode="&#xdf;" horiz-adv-x="948" d="M98 0v1057q0 210 80.5 323t282.5 113q214 0 305 -147q47 -75 47 -166t-24.5 -157t-73.5 -112t-119 -59v-4q93 0 159.5 -51.5t100 -140.5t33.5 -199t-39.5 -217t-122.5 -173.5t-205 -66.5h-121v150h119q70 0 113 50q76 90 76 263q0 192 -103 273q-50 38 -109 38t-89 -6 v141h41q82 0 137 57.5t55 156.5t-40 167t-150.5 68t-145.5 -71.5t-35 -201.5v-1085h-172z" />
<glyph unicode="&#xe0;" d="M59 293q0 244 207 307l232 70q107 33 119 86q6 27 6 80t-20 90q-41 75 -159.5 75t-152 -71.5t-33.5 -145.5v-10h-172q0 188 86 276q87 89 261.5 89t247.5 -50.5t90 -116.5t17 -153v-618q0 -59 14.5 -73.5t40 -14.5t40.5 10v-125q-65 -10 -105.5 -10t-70.5 7 q-73 17 -80 136h-4q-42 -75 -114 -117.5t-151 -42.5q-149 0 -224 84.5t-75 237.5zM213 1556h201l143 -294h-123zM240 297q0 -188 155 -188q86 0 153.5 63.5t67.5 146.5v285q-28 -29 -60.5 -42.5t-115.5 -41t-122 -50.5q-78 -47 -78 -173z" />
<glyph unicode="&#xe1;" d="M59 293q0 244 207 307l232 70q107 33 119 86q6 27 6 80t-20 90q-41 75 -159.5 75t-152 -71.5t-33.5 -145.5v-10h-172q0 188 86 276q87 89 261.5 89t247.5 -50.5t90 -116.5t17 -153v-618q0 -59 14.5 -73.5t40 -14.5t40.5 10v-125q-65 -10 -105.5 -10t-70.5 7 q-73 17 -80 136h-4q-42 -75 -114 -117.5t-151 -42.5q-149 0 -224 84.5t-75 237.5zM240 297q0 -188 155 -188q86 0 153.5 63.5t67.5 146.5v285q-28 -29 -60.5 -42.5t-115.5 -41t-122 -50.5q-78 -47 -78 -173zM352 1262l144 294h200l-221 -294h-123z" />
<glyph unicode="&#xe2;" d="M59 293q0 244 207 307l232 70q107 33 119 86q6 27 6 80t-20 90q-41 75 -159.5 75t-152 -71.5t-33.5 -145.5v-10h-172q0 188 86 276q87 89 261.5 89t247.5 -50.5t90 -116.5t17 -153v-618q0 -59 14.5 -73.5t40 -14.5t40.5 10v-125q-65 -10 -105.5 -10t-70.5 7 q-73 17 -80 136h-4q-42 -75 -114 -117.5t-151 -42.5q-149 0 -224 84.5t-75 237.5zM170 1262l207 294h158l204 -294h-159l-125 182l-125 -182h-160zM240 297q0 -188 155 -188q86 0 153.5 63.5t67.5 146.5v285q-28 -29 -60.5 -42.5t-115.5 -41t-122 -50.5q-78 -47 -78 -173z " />
<glyph unicode="&#xe3;" d="M59 293q0 244 207 307l232 70q107 33 119 86q6 27 6 80t-20 90q-41 75 -159.5 75t-152 -71.5t-33.5 -145.5v-10h-172q0 188 86 276q87 89 261.5 89t247.5 -50.5t90 -116.5t17 -153v-618q0 -59 14.5 -73.5t40 -14.5t40.5 10v-125q-65 -10 -105.5 -10t-70.5 7 q-73 17 -80 136h-4q-42 -75 -114 -117.5t-151 -42.5q-149 0 -224 84.5t-75 237.5zM154 1286q0 93 55.5 161.5t134.5 68.5q43 0 91.5 -23.5t70.5 -34.5q44 -20 73 -20t42.5 24t23.5 68h111q0 -53 -20.5 -107t-61 -88.5t-85.5 -34.5t-77 12.5t-91.5 40t-85.5 27.5t-45.5 -29.5 t-25.5 -64.5h-110zM240 297q0 -188 155 -188q86 0 153.5 63.5t67.5 146.5v285q-28 -29 -60.5 -42.5t-115.5 -41t-122 -50.5q-78 -47 -78 -173z" />
<glyph unicode="&#xe4;" d="M59 293q0 244 207 307l232 70q107 33 119 86q6 27 6 80t-20 90q-41 75 -159.5 75t-152 -71.5t-33.5 -145.5v-10h-172q0 188 86 276q87 89 261.5 89t247.5 -50.5t90 -116.5t17 -153v-618q0 -59 14.5 -73.5t40 -14.5t40.5 10v-125q-65 -10 -105.5 -10t-70.5 7 q-73 17 -80 136h-4q-42 -75 -114 -117.5t-151 -42.5q-149 0 -224 84.5t-75 237.5zM209 1311v209h160v-209h-160zM240 297q0 -188 155 -188q86 0 153.5 63.5t67.5 146.5v285q-28 -29 -60.5 -42.5t-115.5 -41t-122 -50.5q-78 -47 -78 -173zM541 1311v209h159v-209h-159z" />
<glyph unicode="&#xe5;" d="M59 293q0 244 207 307l232 70q107 33 119 86q6 27 6 80t-20 90q-41 75 -159.5 75t-152 -71.5t-33.5 -145.5v-10h-172q0 188 86 276q87 89 261.5 89t247.5 -50.5t90 -116.5t17 -153v-618q0 -59 14.5 -73.5t40 -14.5t40.5 10v-125q-65 -10 -105.5 -10t-70.5 7 q-73 17 -80 136h-4q-42 -75 -114 -117.5t-151 -42.5q-149 0 -224 84.5t-75 237.5zM240 297q0 -188 155 -188q86 0 153.5 63.5t67.5 146.5v285q-28 -29 -60.5 -42.5t-115.5 -41t-122 -50.5q-78 -47 -78 -173zM252 1427q0 84 59.5 144.5t144 60.5t143 -59.5t58.5 -145.5 t-59 -145t-142.5 -59t-143.5 60t-60 144zM338 1428q0 -47 35 -82t82.5 -35t81.5 35t34 82t-33.5 81.5t-82 34.5t-83 -34.5t-34.5 -81.5z" />
<glyph unicode="&#xe6;" horiz-adv-x="1366" d="M53 293q0 118 54.5 197.5t154.5 109.5l256 78q47 14 61.5 49t14.5 111q0 163 -164 163q-61 0 -98 -26t-53 -61q-25 -56 -25 -130v-10h-172q0 279 199 343q68 22 149 22t136 -19q113 -37 139 -135h4q17 44 59 80q85 74 199 74q211 0 278.5 -150t67.5 -385v-69h-559 q0 -191 33 -308.5t150 -117.5t156.5 81t39.5 175h172q0 -73 -32 -165.5t-110 -160.5t-192.5 -68t-180 38.5t-93.5 85.5t-33 79h-5q-90 -203 -305 -203q-89 0 -158 39q-143 81 -143 283zM233 299q0 -80 39 -135t115 -55q126 0 166.5 82.5t40.5 168.5v218h-4 q-11 -22 -119.5 -56.5t-146.5 -46.5q-91 -31 -91 -176zM760 670h373v61q0 160 -75 231q-41 39 -108 39q-108 0 -149 -98t-41 -192v-41z" />
<glyph unicode="&#xe7;" horiz-adv-x="872" d="M66 541q0 261 72 411q41 83 120 135t207.5 52t206.5 -61q135 -103 135 -306h-172q0 134 -73 196q-39 33 -101 33t-109 -33q-106 -76 -106 -425q0 -177 37 -305.5t172 -128.5q100 0 140 81.5t40 194.5h172q0 -215 -132 -335q-71 -64 -183 -77l-60 -86l4 -4q32 13 78 13 t97 -39t51 -117t-65 -128t-177 -50t-180 41l30 69q8 -3 63 -13.5t68 -10.5q113 0 113 86q0 34 -28 55t-77 21t-69 -15l-31 37l97 139q-178 16 -259 155.5t-81 414.5z" />
<glyph unicode="&#xe8;" d="M76 541q0 261 72 411q41 83 120 135t199 52q225 0 296 -149.5t71 -385.5v-69h-578q0 -122 10.5 -208.5t57 -152t132 -65.5t127.5 43q70 72 70 213h172q0 -74 -33 -166t-116 -160t-200 -68t-190 35t-119 106q-91 140 -91 429zM213 1556h201l143 -294h-123zM262 670h391v61 q0 110 -44 190t-152.5 80t-151.5 -97.5t-43 -192.5v-41z" />
<glyph unicode="&#xe9;" d="M76 541q0 261 72 411q41 83 120 135t199 52q225 0 296 -149.5t71 -385.5v-69h-578q0 -122 10.5 -208.5t57 -152t132 -65.5t127.5 43q70 72 70 213h172q0 -74 -33 -166t-116 -160t-200 -68t-190 35t-119 106q-91 140 -91 429zM262 670h391v61q0 110 -44 190t-152.5 80 t-151.5 -97.5t-43 -192.5v-41zM352 1262l144 294h200l-221 -294h-123z" />
<glyph unicode="&#xea;" d="M76 541q0 261 72 411q41 83 120 135t199 52q225 0 296 -149.5t71 -385.5v-69h-578q0 -122 10.5 -208.5t57 -152t132 -65.5t127.5 43q70 72 70 213h172q0 -74 -33 -166t-116 -160t-200 -68t-190 35t-119 106q-91 140 -91 429zM170 1262l207 294h158l204 -294h-159 l-125 182l-125 -182h-160zM262 670h391v61q0 110 -44 190t-152.5 80t-151.5 -97.5t-43 -192.5v-41z" />
<glyph unicode="&#xeb;" d="M76 541q0 261 72 411q41 83 120 135t199 52q225 0 296 -149.5t71 -385.5v-69h-578q0 -122 10.5 -208.5t57 -152t132 -65.5t127.5 43q70 72 70 213h172q0 -74 -33 -166t-116 -160t-200 -68t-190 35t-119 106q-91 140 -91 429zM209 1311v209h160v-209h-160zM262 670h391v61 q0 110 -44 190t-152.5 80t-151.5 -97.5t-43 -192.5v-41zM541 1311v209h159v-209h-159z" />
<glyph unicode="&#xec;" horiz-adv-x="418" d="M-33 1556h201l143 -294h-123zM123 0v1108h172v-1108h-172z" />
<glyph unicode="&#xed;" horiz-adv-x="418" d="M106 1262l144 294h201l-222 -294h-123zM123 0v1108h172v-1108h-172z" />
<glyph unicode="&#xee;" horiz-adv-x="418" d="M-76 1262l207 294h158l205 -294h-160l-125 182l-125 -182h-160zM123 0v1108h172v-1108h-172z" />
<glyph unicode="&#xef;" horiz-adv-x="418" d="M-37 1311v209h160v-209h-160zM123 0v1108h172v-1108h-172zM295 1311v209h160v-209h-160z" />
<glyph unicode="&#xf0;" d="M59 551.5q0 165.5 35 288t123 195.5t238 73q67 0 120 -35h5q-91 140 -185 242l-149 -84l-78 86l145 84q-62 62 -157 137l131 59q69 -56 147 -127l152 89l78 -89l-144 -81q109 -111 182 -229q148 -242 148 -605q0 -418 -204 -539q-77 -45 -209.5 -45t-220.5 77.5 t-122.5 207.5t-34.5 295.5zM240 555q0 -206 45 -326t168 -120t170 119t47 327q0 254 -84 359q-48 59 -135 59q-211 0 -211 -418z" />
<glyph unicode="&#xf1;" horiz-adv-x="948" d="M113 0v1108h163v-129h5q46 100 161 141q53 19 130.5 19t137.5 -34.5t86.5 -87t33 -106.5t6.5 -125v-786h-172v766q0 56 -9.5 104.5t-45 83.5t-112 35t-144.5 -56t-68 -167v-766h-172zM174 1286q0 93 55.5 161.5t135.5 68.5q42 0 90.5 -23.5t72.5 -34.5q45 -20 72.5 -20 t42 25.5t23.5 66.5h110q0 -51 -20.5 -106t-61 -89.5t-85.5 -34.5t-78.5 13t-91 40t-83.5 27t-45.5 -29.5t-25.5 -64.5h-111z" />
<glyph unicode="&#xf2;" d="M59 534q0 148 18.5 251t62.5 183q96 171 315 171q316 0 377 -355q18 -104 18 -228.5t-19 -230.5t-63 -185q-97 -169 -313 -169q-151 0 -239 77.5t-122.5 207.5t-34.5 278zM213 1556h201l143 -294h-123zM240 556q0 -207 45 -327t168 -120t170 119t47 327.5t-45.5 327 t-170 118.5t-169.5 -119t-45 -326z" />
<glyph unicode="&#xf3;" d="M59 534q0 148 18.5 251t62.5 183q96 171 315 171q316 0 377 -355q18 -104 18 -228.5t-19 -230.5t-63 -185q-97 -169 -313 -169q-151 0 -239 77.5t-122.5 207.5t-34.5 278zM240 556q0 -207 45 -327t168 -120t170 119t47 327.5t-45.5 327t-170 118.5t-169.5 -119t-45 -326z M352 1262l144 294h200l-221 -294h-123z" />
<glyph unicode="&#xf4;" d="M59 534q0 148 18.5 251t62.5 183q96 171 315 171q316 0 377 -355q18 -104 18 -228.5t-19 -230.5t-63 -185q-97 -169 -313 -169q-151 0 -239 77.5t-122.5 207.5t-34.5 278zM170 1262l207 294h158l204 -294h-159l-125 182l-125 -182h-160zM240 556q0 -207 45 -327t168 -120 t170 119t47 327.5t-45.5 327t-170 118.5t-169.5 -119t-45 -326z" />
<glyph unicode="&#xf5;" d="M59 534q0 148 18.5 251t62.5 183q96 171 315 171q316 0 377 -355q18 -104 18 -228.5t-19 -230.5t-63 -185q-97 -169 -313 -169q-151 0 -239 77.5t-122.5 207.5t-34.5 278zM154 1286q0 93 55.5 161.5t134.5 68.5q43 0 91.5 -23.5t70.5 -34.5q44 -20 73 -20t42.5 24 t23.5 68h111q0 -53 -20.5 -107t-61 -88.5t-85.5 -34.5t-77 12.5t-91.5 40t-85.5 27.5t-45.5 -29.5t-25.5 -64.5h-110zM240 556q0 -207 45 -327t168 -120t170 119t47 327.5t-45.5 327t-170 118.5t-169.5 -119t-45 -326z" />
<glyph unicode="&#xf6;" d="M59 534q0 148 18.5 251t62.5 183q96 171 315 171q316 0 377 -355q18 -104 18 -228.5t-19 -230.5t-63 -185q-97 -169 -313 -169q-151 0 -239 77.5t-122.5 207.5t-34.5 278zM209 1311v209h160v-209h-160zM240 556q0 -207 45 -327t168 -120t170 119t47 327.5t-45.5 327 t-170 118.5t-169.5 -119t-45 -326zM541 1311v209h159v-209h-159z" />
<glyph unicode="&#xf7;" horiz-adv-x="1229" d="M96 455v137h1037v-137h-1037zM500 87q0 47 33.5 81.5t72.5 34.5t66 -16q57 -34 57 -91t-33 -91t-81 -34t-81.5 34.5t-33.5 81.5zM500 960q0 47 34 81t81 34t80.5 -33.5t33.5 -81.5t-33 -82t-81 -34t-81.5 34.5t-33.5 81.5z" />
<glyph unicode="&#xf8;" d="M59 555q0 419 204 539q78 45 183 45t181 -39l53 127l98 -43l-61 -148q133 -148 133 -481q0 -418 -204 -539q-77 -45 -184 -45t-179 37l-56 -131l-96 41l66 156q-138 138 -138 481zM240 566.5q0 -196.5 34 -306.5l293 698q-47 43 -116 43q-121 0 -166 -119t-45 -315.5z M342 147q43 -38 109 -38q125 0 172 119t47 316t-35 298z" />
<glyph unicode="&#xf9;" horiz-adv-x="948" d="M113 324v784h172v-764q0 -94 29.5 -158.5t131.5 -64.5q50 0 101 23.5t84 74t33 125.5v764h172v-1108h-164v131h-4q-32 -74 -108.5 -117t-158.5 -43q-188 0 -238 99.5t-50 253.5zM233 1556h201l144 -294h-123z" />
<glyph unicode="&#xfa;" horiz-adv-x="948" d="M113 324v784h172v-764q0 -94 29.5 -158.5t131.5 -64.5q50 0 101 23.5t84 74t33 125.5v764h172v-1108h-164v131h-4q-32 -74 -108.5 -117t-158.5 -43q-188 0 -238 99.5t-50 253.5zM373 1262l143 294h201l-221 -294h-123z" />
<glyph unicode="&#xfb;" horiz-adv-x="948" d="M113 324v784h172v-764q0 -94 29.5 -158.5t131.5 -64.5q50 0 101 23.5t84 74t33 125.5v764h172v-1108h-164v131h-4q-32 -74 -108.5 -117t-158.5 -43q-188 0 -238 99.5t-50 253.5zM190 1262l207 294h158l205 -294h-160l-125 182l-125 -182h-160z" />
<glyph unicode="&#xfc;" horiz-adv-x="948" d="M113 324v784h172v-764q0 -94 29.5 -158.5t131.5 -64.5q50 0 101 23.5t84 74t33 125.5v764h172v-1108h-164v131h-4q-32 -74 -108.5 -117t-158.5 -43q-188 0 -238 99.5t-50 253.5zM229 1311v209h160v-209h-160zM561 1311v209h160v-209h-160z" />
<glyph unicode="&#xfd;" horiz-adv-x="831" d="M20 1108h189l217 -889h4l193 889h188l-317 -1182q-27 -97 -54.5 -156t-84 -97t-153.5 -36.5t-126 5.5v137q36 -6 96 -6t91 28t48 78l33 98zM313 1262l144 294h200l-221 -294h-123z" />
<glyph unicode="&#xfe;" horiz-adv-x="948" d="M113 -365v1842h172v-494h4q19 68 86.5 112t142.5 44q126 0 206 -71q153 -135 153 -493q0 -238 -75 -403q-92 -201 -284 -201q-73 0 -136 42t-93 114h-4v-492h-172zM274 566q0 -133 18 -228q42 -217 204 -217q147 0 182 206q18 101 18 237.5t-18 229.5q-36 195 -182 195 q-169 0 -206 -199q-16 -91 -16 -224z" />
<glyph unicode="&#xff;" horiz-adv-x="831" d="M20 1108h189l217 -889h4l193 889h188l-317 -1182q-27 -97 -54.5 -156t-84 -97t-153.5 -36.5t-126 5.5v137q36 -6 96 -6t91 28t48 78l33 98zM170 1311v209h160v-209h-160zM502 1311v209h160v-209h-160z" />
<glyph unicode="&#x152;" horiz-adv-x="1630" d="M98 732.5q0 223.5 36.5 390.5t141.5 274.5t293 107.5q85 0 168 -38t115 -103h4v113h700v-162h-532v-463h500v-162h-500v-528h557v-162h-733v131h-4q-27 -74 -103.5 -117t-171.5 -43q-190 0 -294 103t-140.5 269t-36.5 389.5zM279 739q0 -306 51 -443q64 -175 232 -175 t225 94t57 264v479q0 132 -15 213t-74.5 134t-185.5 53q-175 0 -232.5 -158t-57.5 -461z" />
<glyph unicode="&#x153;" horiz-adv-x="1479" d="M80 555q0 259 87 421.5t298 162.5q144 0 225 -83q40 -41 76 -106q39 86 117.5 137.5t169.5 51.5q211 0 278.5 -150t67.5 -385v-69h-559q0 -191 33 -308.5t150 -117.5t156.5 81t39.5 175h172q0 -73 -32 -165.5t-110 -160.5t-214 -68t-198.5 66t-82.5 125 q-39 -89 -115.5 -140t-173.5 -51q-385 0 -385 584zM260 555q0 -200 44.5 -323t163.5 -123t165.5 122t46.5 287t-18 263q-39 220 -197 220q-205 0 -205 -446zM846 670h373v61q0 160 -75 231q-41 39 -108 39q-108 0 -149 -98t-41 -192v-41z" />
<glyph unicode="&#x178;" horiz-adv-x="946" d="M-4 1477h199l278 -691l289 691h188l-387 -897v-580h-180v580zM227 1606v209h160v-209h-160zM559 1606v209h160v-209h-160z" />
<glyph unicode="&#x2c6;" horiz-adv-x="418" d="M-76 1262l207 294h158l205 -294h-160l-125 182l-125 -182h-160z" />
<glyph unicode="&#x2dc;" horiz-adv-x="418" d="M-92 1286q0 93 55.5 161.5t134.5 68.5q43 0 91.5 -23.5t72.5 -34.5q45 -20 72.5 -20t41 24t23.5 68h111q0 -51 -20.5 -106t-61 -89.5t-85.5 -34.5t-77 12.5t-91.5 40t-76.5 27.5q-62 0 -80 -94h-110z" />
<glyph unicode="&#x2000;" horiz-adv-x="963" />
<glyph unicode="&#x2001;" horiz-adv-x="1927" />
<glyph unicode="&#x2002;" horiz-adv-x="963" />
<glyph unicode="&#x2003;" horiz-adv-x="1927" />
<glyph unicode="&#x2004;" horiz-adv-x="642" />
<glyph unicode="&#x2005;" horiz-adv-x="481" />
<glyph unicode="&#x2006;" horiz-adv-x="321" />
<glyph unicode="&#x2007;" horiz-adv-x="321" />
<glyph unicode="&#x2008;" horiz-adv-x="240" />
<glyph unicode="&#x2009;" horiz-adv-x="385" />
<glyph unicode="&#x200a;" horiz-adv-x="107" />
<glyph unicode="&#x2010;" horiz-adv-x="721" d="M111 506v162h499v-162h-499z" />
<glyph unicode="&#x2011;" horiz-adv-x="721" d="M111 506v162h499v-162h-499z" />
<glyph unicode="&#x2012;" horiz-adv-x="721" d="M111 506v162h499v-162h-499z" />
<glyph unicode="&#x2013;" horiz-adv-x="1024" d="M0 512v150h1024v-150h-1024z" />
<glyph unicode="&#x2014;" horiz-adv-x="2048" d="M0 512v150h2048v-150h-2048z" />
<glyph unicode="&#x2018;" horiz-adv-x="492" d="M152 952v178q0 98 12 162q25 143 176 185v-97q-52 -24 -71 -60.5t-19 -98.5v-50h90v-219h-188z" />
<glyph unicode="&#x2019;" horiz-adv-x="492" d="M152 952v97q51 24 70.5 60t19.5 99v49h-90v220h188v-181q0 -145 -34.5 -228.5t-153.5 -115.5z" />
<glyph unicode="&#x201a;" horiz-adv-x="492" d="M152 0v219h188v-180q0 -98 -12 -161q-25 -142 -176 -183v96q52 26 71 61.5t19 98.5v49h-90z" />
<glyph unicode="&#x201c;" horiz-adv-x="834" d="M162 952v178q0 98 12 162q25 143 176 185v-97q-52 -25 -71 -61t-19 -98v-50h90v-219h-188zM483 952v178q0 98 12 162q27 143 177 185v-97q-52 -24 -71 -60.5t-19 -98.5v-50h90v-219h-189z" />
<glyph unicode="&#x201d;" horiz-adv-x="834" d="M162 952v97q51 24 70.5 60t19.5 99v49h-90v220h188v-181q0 -145 -34.5 -228.5t-153.5 -115.5zM483 952v97q53 25 71.5 59t18.5 100v49h-90v220h189v-181q0 -145 -35 -228.5t-154 -115.5z" />
<glyph unicode="&#x201e;" horiz-adv-x="834" d="M162 0v219h188v-180q0 -98 -12 -161q-25 -142 -176 -183v96q52 26 71 61.5t19 98.5v49h-90zM483 0v219h189v-180q0 -98 -12 -161q-27 -142 -177 -183v96q54 27 72 60.5t18 99.5v49h-90z" />
<glyph unicode="&#x2022;" horiz-adv-x="1024" d="M147 740q0 100 49 184t133 133t171.5 49t152.5 -27.5t117 -78.5q107 -108 107 -261q0 -99 -49.5 -184t-133 -134.5t-182.5 -49.5t-182.5 49.5t-133 134.5t-49.5 185z" />
<glyph unicode="&#x2026;" horiz-adv-x="2048" d="M248 0v219h188v-219h-188zM930 0v219h188v-219h-188zM1612 0v219h188v-219h-188z" />
<glyph unicode="&#x202f;" horiz-adv-x="385" />
<glyph unicode="&#x2039;" horiz-adv-x="492" d="M100 506v162l291 297v-183l-192 -194l192 -195v-182z" />
<glyph unicode="&#x203a;" horiz-adv-x="492" d="M100 211v182l193 195l-193 194v183l291 -297v-162z" />
<glyph unicode="&#x205f;" horiz-adv-x="481" />
<glyph unicode="&#x2122;" horiz-adv-x="2028" d="M106 1354v123h674v-123h-266v-729h-135v729h-273zM944 625v852h201l266 -654l260 654h201v-852h-135v702h-4l-285 -702h-80l-285 702h-4v-702h-135z" />
<glyph unicode="&#xe000;" horiz-adv-x="1110" d="M0 0v1110h1110v-1110h-1110z" />
</font>
</defs>
</svg>
