<?xml version="1.0" standalone="no"?>
<!DOCTYPE svg PUBLIC "-//W3C//DTD SVG 1.1//EN" "http://www.w3.org/Graphics/SVG/1.1/DTD/svg11.dtd" >
<svg xmlns="http://www.w3.org/2000/svg">
<metadata></metadata>
<defs>
<font id="ContextRepriseLightSSiLight" horiz-adv-x="1139" >
<font-face units-per-em="2048" ascent="1638" descent="-410" />
<missing-glyph horiz-adv-x="569" />
<glyph horiz-adv-x="0" />
<glyph horiz-adv-x="0" />
<glyph unicode="&#xd;" horiz-adv-x="0" />
<glyph unicode=" "  horiz-adv-x="569" />
<glyph unicode="&#x09;" horiz-adv-x="569" />
<glyph unicode="&#xa0;" horiz-adv-x="569" />
<glyph unicode="!" horiz-adv-x="494" d="M162 0v219h172v-219h-172zM178 1036v441h139v-441l-30 -667h-78z" />
<glyph unicode="&#x22;" horiz-adv-x="758" d="M178 975v502h129v-502h-129zM451 975v502h129v-502h-129z" />
<glyph unicode="#" d="M72 461v94h237l45 322h-225v94h238l63 459h102l-63 -459h289l63 459h103l-64 -459h215v-94h-227l-45 -322h215v-94h-227l-64 -461h-102l63 461h-289l-63 -461h-103l64 461h-225zM412 555h288l45 322h-288z" />
<glyph unicode="$" d="M59 471h129q3 -352 338 -393v612q-111 27 -178 51t-126 70q-126 97 -126 293q0 121 57 213t155 141t218 49v162h80v-162q117 0 216.5 -55t158.5 -157t59 -236h-129q0 153 -85 247q-83 93 -220 93v-596q138 -28 240.5 -72t167.5 -128.5t65 -202t-39 -195t-106 -129.5 q-136 -107 -328 -107v-176h-80v178q-311 29 -410 237q-51 105 -57 263zM225 1077.5q0 -115.5 74.5 -167t226.5 -89.5v578q-183 0 -261 -136q-40 -70 -40 -185.5zM606 78q144 0 244 76t100 217t-93 203.5t-251 99.5v-596z" />
<glyph unicode="%" horiz-adv-x="1821" d="M141 1069q0 244 142 341q74 50 184 50t184 -50q142 -97 142 -341q0 -176 -81 -283.5t-245 -107.5t-245 107.5t-81 283.5zM250 1067q0 -119 50.5 -207t166.5 -88t166.5 88t50.5 185t-20 165t-69 113t-128 45t-128 -45q-89 -82 -89 -256zM389 -70l928 1569h96l-926 -1569 h-98zM1040 360q0 245 142 342q74 50 184 50t184 -50q142 -97 142 -342q0 -176 -81 -283.5t-245 -107.5t-245 107.5t-81 283.5zM1149 357.5q0 -120.5 50.5 -208.5t166.5 -88t166.5 88t50.5 208.5t-50.5 210t-166.5 89.5t-166.5 -89.5t-50.5 -210z" />
<glyph unicode="&#x26;" horiz-adv-x="1251" d="M80 383q0 246 358 438q-4 6 -51 67.5t-72 103.5q-57 94 -57 184t43 158t117.5 105.5t164 37.5t163 -37.5t116.5 -105.5t43 -154.5t-38.5 -156t-98 -119.5t-150.5 -109l320 -389q43 86 43 247h129q0 -193 -86 -354l246 -299h-162l-156 193q-109 -142 -268 -197 q-79 -27 -184.5 -27t-205.5 48.5t-157 142.5t-57 223zM209 371q0 -82 44 -150.5t116.5 -105.5t150 -37t140.5 28q122 53 212 183l-364 448q-89 -50 -152 -99q-147 -116 -147 -267zM387 1178q0 -68 40.5 -131.5t123.5 -167.5q66 43 113 83q112 94 112 216q0 119 -98 168 q-45 22 -96.5 22t-96.5 -22q-98 -50 -98 -168z" />
<glyph unicode="'" horiz-adv-x="569" d="M221 975v502h129v-502h-129z" />
<glyph unicode="(" horiz-adv-x="494" d="M104 551q0 506 289 956h103q-263 -423 -263 -1005q0 -294 125 -616q60 -154 138 -281h-103q-220 373 -270 693q-19 122 -19 253z" />
<glyph unicode=")" horiz-adv-x="494" d="M-2 -395q262 420 262 1005q0 298 -125 618q-59 152 -137 279h102q145 -237 217 -460.5t72 -483.5q0 -511 -289 -958h-102z" />
<glyph unicode="*" horiz-adv-x="721" d="M55 1231l29 76l235 -84v254h80v-254l236 84l31 -76l-242 -80l147 -203l-65 -49l-150 207l-149 -207l-66 49l150 203z" />
<glyph unicode="+" horiz-adv-x="1229" d="M100 465v110h461v465h109v-465h460v-110h-460v-465h-109v465h-461z" />
<glyph unicode="," horiz-adv-x="569" d="M190 -195q61 21 85 118q10 41 10 77h-86v219h172v-221q-2 -99 -48.5 -177.5t-132.5 -103.5v88z" />
<glyph unicode="-" horiz-adv-x="758" d="M123 508v121h512v-121h-512z" />
<glyph unicode="." horiz-adv-x="569" d="M199 0v219h172v-219h-172z" />
<glyph unicode="/" horiz-adv-x="682" d="M-27 -31l631 1538h105l-625 -1538h-111z" />
<glyph unicode="0" d="M70 687.5q0 168.5 22 298.5t76 238q120 236 401.5 236t390.5 -214.5t109 -530.5t-96 -506q-54 -107 -155.5 -173.5t-248.5 -66.5q-194 0 -305.5 109.5t-152.5 275t-41 334zM199 715q0 -156 27.5 -298t109.5 -240.5t233 -98.5t233.5 99t110 240.5t27.5 297.5t-27.5 297.5 t-110 240.5t-233.5 99t-233 -98.5t-109.5 -240.5t-27.5 -298z" />
<glyph unicode="1" d="M199 1075v94q120 6 173 13t102 32q104 54 128 234h105v-1448h-129v1075h-379z" />
<glyph unicode="2" d="M74 0q4 150 71.5 258.5t155 177.5t242.5 174.5t218.5 169.5t92.5 127.5t29 151t-43.5 155t-117 103t-173.5 35.5t-173 -54q-138 -103 -138 -350h-129q0 323 207 449q103 63 224 63t202 -26t142 -78q128 -109 128 -288.5t-97.5 -301t-263.5 -227.5q-17 -12 -109 -71 t-154 -108q-146 -118 -167 -239h797v-121h-944z" />
<glyph unicode="3" d="M66 420q2 20 2 41h129q0 -180 94.5 -281.5t263.5 -101.5q151 0 255 84q112 91 112 238t-96.5 226t-247.5 79h-109v110h109q113 0 201.5 68t88.5 194q0 91 -41 153q-81 122 -272 122q-235 0 -305 -218q-21 -67 -21 -149h-129q2 137 57 245t157.5 169t214 61t190.5 -21.5 t142 -66.5q136 -97 136 -280q0 -119 -64 -205.5t-177 -114.5v-4q188 -31 260 -188q35 -76 35 -174.5t-38 -181t-107 -138.5q-142 -117 -349 -117q-144 0 -254.5 53.5t-173.5 157t-63 240.5z" />
<glyph unicode="4" d="M61 360v125l664 963h117v-979h215v-109h-215v-360h-119v360h-662zM178 469h545v788h-4z" />
<glyph unicode="5" d="M74 414h129q3 -98 49 -174.5t125.5 -119t182 -42.5t184.5 54t125.5 145t43.5 184t-28 163t-75 119q-104 107 -263 107q-130 0 -235 -79q-51 -39 -85 -93h-110l139 752h717v-121h-627l-92 -480l4 -4q53 62 136.5 99t166.5 37q145 0 254 -64t168 -179t59 -238t-37.5 -213 t-108.5 -158q-145 -140 -351 -140q-202 0 -333 120q-132 120 -138 325z" />
<glyph unicode="6" d="M82 739q0 132 36 295t150.5 294.5t325.5 131.5q257 0 369 -170q56 -84 71 -209h-129q-17 124 -97 197.5t-200 73.5t-199 -60t-122 -158q-76 -172 -76 -432h4q71 149 227 212q75 30 169 30t180 -35t149 -100q129 -135 129 -350q0 -140 -62.5 -251.5t-173 -175 t-249.5 -63.5q-265 0 -383.5 176.5t-118.5 593.5zM238 451q0 -165 90 -269t268 -104q100 0 178 50t122 136t44 187q0 163 -93.5 273t-255 110t-257.5 -109t-96 -274z" />
<glyph unicode="7" d="M104 1309v121h922v-121q-540 -582 -580 -1309h-139q27 370 159 666q135 303 431 643h-793z" />
<glyph unicode="8" d="M77.5 407.5q1.5 140.5 80 242.5t209.5 126v4q-153 47 -207 175q-27 64 -27 162.5t62 180.5t161.5 122t211.5 40t211.5 -40t162 -122t62.5 -179.5t-28 -162.5q-58 -133 -206 -178v-2q186 -37 258 -196q35 -77 35 -195t-65.5 -217.5t-178 -149t-249.5 -49.5t-250 49.5 t-178.5 149t-64 240zM205 406q0 -157 103.5 -242.5t261.5 -85.5t261 84.5t103 238.5t-105 236t-260 82q-219 0 -315 -141q-49 -71 -49 -172zM262 1091q0 -86 43.5 -146.5t113 -88t151.5 -27.5t151 29t111 89t42 146t-40 143q-80 116 -265 116q-79 0 -150.5 -30t-114 -87.5 t-42.5 -143.5z" />
<glyph unicode="9" d="M70 970.5q0 138.5 62 250.5t173 175.5t268.5 63.5t268 -75.5t163 -244.5t52.5 -450q0 -241 -85 -438q-52 -120 -158 -201.5t-283 -81.5t-290 95t-137 284h129q18 -122 98.5 -196t199.5 -74t198.5 60t122.5 157q76 171 76 432h-4q-52 -108 -157 -175t-234.5 -67 t-237.5 61.5t-166.5 173.5t-58.5 250.5zM199 979q0 -163 93.5 -273t255 -110t257.5 109.5t96 273.5q0 228 -157 323q-82 50 -191.5 50t-187.5 -50t-122 -136t-44 -187z" />
<glyph unicode=":" horiz-adv-x="569" d="M199 0v219h172v-219h-172zM199 815v219h172v-219h-172z" />
<glyph unicode=";" horiz-adv-x="569" d="M190 -195q61 21 85 118q10 41 10 77h-86v219h172v-221q-2 -99 -48.5 -177.5t-132.5 -103.5v88zM199 815v219h172v-219h-172z" />
<glyph unicode="&#x3c;" horiz-adv-x="1229" d="M94 467v113l1041 483v-113l-914 -426l914 -428v-112z" />
<glyph unicode="=" horiz-adv-x="1229" d="M100 264v111h1030v-111h-1030zM100 672v110h1030v-110h-1030z" />
<glyph unicode="&#x3e;" horiz-adv-x="1229" d="M94 -16v112l914 428l-914 426v113l1041 -483v-113z" />
<glyph unicode="?" horiz-adv-x="1100" d="M111 1022q2 224 124 354.5t340 130.5q177 0 295 -101q121 -104 121 -282q0 -136 -81 -244q-39 -51 -95 -105.5t-99 -97.5t-61 -77t-23 -75t-9 -154h-129q0 221 90 332q43 53 145 149q133 126 133 266q0 80 -39 144.5t-107.5 100.5t-161 36t-166.5 -49q-148 -96 -148 -328 h-129zM473 0v219h172v-219h-172z" />
<glyph unicode="@" horiz-adv-x="1638" d="M96 745q0 321 220 543q104 105 241 162t311.5 57t333.5 -81t249.5 -228.5t90.5 -333.5q0 -245 -150 -424q-70 -82 -155 -129t-154.5 -47t-108 37t-44.5 102h-4q-132 -137 -260 -137q-81 0 -142.5 40t-95 108.5t-33.5 152.5q0 145 62 283.5t173.5 226.5t258 88t209.5 -174 l51 133h108l-196 -594q-23 -82 -23 -112q0 -60 49 -60q87 0 168 78.5t130 198.5t49 239.5t-45.5 221.5t-126.5 174q-163 145 -410 145q-140 0 -260 -52.5t-206.5 -146t-133.5 -220t-47 -265t49 -262t138 -215.5q187 -193 464 -193q153 0 297 75t231 202h105 q-92 -169 -267 -270q-174 -99 -351 -99t-316 59t-243 166q-216 222 -216 551zM524 583q0 -98 48 -152t119 -54t134.5 49t109.5 123t72.5 159t26.5 157t-50 131t-112 59q-99 0 -178.5 -76t-124.5 -187t-45 -209z" />
<glyph unicode="A" horiz-adv-x="1290" d="M-14 0l589 1477h156l574 -1477h-150l-178 459h-666l-176 -459h-149zM354 580h576l-283 755z" />
<glyph unicode="B" horiz-adv-x="1366" d="M147 0v1477h619q289 0 406 -151q63 -82 63 -206t-70.5 -217.5t-183.5 -118.5v-4q140 -18 224.5 -116.5t84.5 -251t-106 -282.5t-418 -130h-619zM287 121h479q385 0 385 303q0 188 -177 253q-87 32 -208 32h-479v-588zM287 829h479q214 0 294 123q36 57 36 127 q0 279 -330 279h-479v-529z" />
<glyph unicode="C" horiz-adv-x="1442" d="M78 739q0 322 175 539q184 229 515 229q139 0 268 -56t216 -164.5t104 -256.5h-139q-36 166 -163 264q-121 95 -295 95t-299 -92t-184 -240.5t-59 -296t32 -261.5t100.5 -208.5t175 -148.5t240 -54t236 62.5t163 171.5t73.5 241h139q-19 -178 -98.5 -313.5t-211.5 -208 t-299 -72.5t-297 62t-217 169q-175 217 -175 539z" />
<glyph unicode="D" horiz-adv-x="1403" d="M147 0v1477h506q498 -9 629 -419q43 -136 43 -319q0 -542 -379 -687q-125 -47 -293 -52h-506zM287 121h297q317 0 459 144q143 145 143 474t-142 474q-143 145 -460 145h-297v-1237z" />
<glyph unicode="E" horiz-adv-x="1214" d="M147 0v1477h1010v-119h-870v-535h815v-121h-815v-581h880v-121h-1020z" />
<glyph unicode="F" horiz-adv-x="1100" d="M147 0v1477h928v-119h-788v-535h700v-121h-700v-702h-140z" />
<glyph unicode="G" horiz-adv-x="1518" d="M78 739q0 322 175 539q184 229 515 229q154 0 283.5 -56t215 -166.5t111.5 -266.5h-139q-6 62 -42 130t-99 122q-135 119 -324 119t-314 -92t-184 -240.5t-59 -296t32 -261.5t100.5 -208.5t175 -148.5t252 -54t261 69t176 192.5t60.5 281.5h-498v121h621v-752h-101 l-18 268h-4q-95 -202 -300 -268q-98 -31 -236 -31t-268 62t-217 169q-175 217 -175 539z" />
<glyph unicode="H" horiz-adv-x="1442" d="M147 0v1477h140v-641h868v641h139v-1477h-139v715h-868v-715h-140z" />
<glyph unicode="I" horiz-adv-x="455" d="M158 0v1477h139v-1477h-139z" />
<glyph unicode="J" horiz-adv-x="1024" d="M43 473h139q3 -91 7.5 -139t30.5 -108q57 -138 243 -138q108 0 167.5 39t83 120.5t23.5 223.5v1006h140v-1065q0 -153 -41 -250q-82 -193 -385 -193q-159 0 -249 69t-124.5 180.5t-34.5 254.5z" />
<glyph unicode="K" horiz-adv-x="1327" d="M147 0v1477h140v-795l850 795h188l-653 -611l684 -866h-180l-609 770l-280 -264v-506h-140z" />
<glyph unicode="L" horiz-adv-x="1100" d="M147 0v1477h140v-1356h819v-121h-959z" />
<glyph unicode="M" horiz-adv-x="1706" d="M143 0v1477h205l506 -1295l504 1295h205v-1477h-140v1276h-4l-499 -1276h-132l-501 1276h-4v-1276h-140z" />
<glyph unicode="N" horiz-adv-x="1442" d="M145 0v1477h156l852 -1250h4v1250h139v-1477h-155l-852 1249h-4v-1249h-140z" />
<glyph unicode="O" horiz-adv-x="1518" d="M70 740q0 155 44 292.5t131 245.5q184 229 515 229q329 0 514 -229q174 -214 174 -539t-173 -539q-187 -231 -515 -231t-515 231q-175 217 -175 540zM209 760.5q0 -147.5 32 -261.5t100.5 -208.5t175 -148.5t266 -54t284 92t183.5 240.5t59 318t-59 318t-183.5 240.5 t-307 92t-307.5 -92t-184 -240.5t-59 -296z" />
<glyph unicode="P" horiz-adv-x="1290" d="M147 0v1477h650q199 0 316 -111q118 -113 118 -311q0 -131 -53 -227q-110 -195 -381 -195h-510v-633h-140zM287 754h479q149 0 237.5 76t88.5 225t-88 226t-238 77h-479v-604z" />
<glyph unicode="Q" horiz-adv-x="1518" d="M70 739q0 322 175 539q184 229 515 229q329 0 514 -229q174 -214 174 -539q0 -176 -56.5 -328.5t-164.5 -256.5l209 -162l-70 -86l-227 172q-157 -109 -379 -109q-328 0 -515 231q-175 217 -175 539zM209 760.5q0 -147.5 32 -261.5t100.5 -208.5t175 -148.5t251.5 -54 t262 74l-192 145l71 90l213 -164q92 89 139.5 222t47.5 293t-59 308.5t-183.5 240.5t-307 92t-307.5 -92t-184 -240.5t-59 -296z" />
<glyph unicode="R" horiz-adv-x="1366" d="M147 0v1477h670q270 0 386 -169q59 -87 59 -224t-73.5 -238.5t-211.5 -130.5v-4q134 -17 191 -101.5t65 -230.5q3 -53 6 -109.5t9 -103.5q13 -115 52 -166h-153q-26 43 -31 107t-10.5 158.5t-24.5 182.5t-81.5 147.5t-184.5 59.5h-528v-655h-140zM287 776h520 q84 0 157 34.5t115.5 100.5t42.5 152q0 139 -81 217t-234 78h-520v-582z" />
<glyph unicode="S" horiz-adv-x="1290" d="M74 485h139q0 -397 477 -397q87 0 175.5 32t150 100.5t61.5 176t-85.5 167.5t-215.5 91l-325 82q-152 39 -241 118.5t-89 236.5q0 89 44 183t158 163t281.5 69t291 -52.5t196.5 -157t73 -248.5h-139q-6 163 -122 253q-111 87 -277 87q-222 0 -317 -125q-50 -65 -50 -170 q0 -172 221 -226l357 -88q112 -30 196 -76q183 -99 183 -313q0 -145 -91 -258q-57 -70 -172 -117t-293.5 -47t-309 54t-204 169t-73.5 293z" />
<glyph unicode="T" d="M-10 1358v119h1159v-119h-510v-1358h-139v1358h-510z" />
<glyph unicode="U" horiz-adv-x="1403" d="M133 532v945h139v-914q0 -330 195 -427q95 -48 233 -48q210 0 320 113t110 362v914h140v-945q0 -158 -59.5 -285.5t-186.5 -202.5t-323 -75t-323 75q-245 145 -245 488z" />
<glyph unicode="V" horiz-adv-x="1214" d="M-14 1477h149l475 -1321h4l471 1321h148l-543 -1477h-162z" />
<glyph unicode="W" horiz-adv-x="1858" d="M0 1477h150l331 -1293h4l357 1293h174l358 -1293h4l334 1293h139l-403 -1477h-148l-370 1321h-4l-369 -1321h-151z" />
<glyph unicode="X" horiz-adv-x="1176" d="M-25 0l527 762l-496 715h164l414 -619l428 619h155l-499 -719l528 -758h-168l-444 651l-451 -651h-158z" />
<glyph unicode="Y" horiz-adv-x="1251" d="M-20 1477h165l482 -748l479 748h166l-578 -869v-608h-139v608z" />
<glyph unicode="Z" horiz-adv-x="1176" d="M10 0v125l963 1233h-897v119h1052v-123l-962 -1233h983v-121h-1139z" />
<glyph unicode="[" horiz-adv-x="494" d="M156 -395v1902h329v-108h-200v-1684h200v-110h-329z" />
<glyph unicode="\" horiz-adv-x="682" d="M-27 1507h105l631 -1538h-111z" />
<glyph unicode="]" horiz-adv-x="494" d="M8 -285h201v1684h-201v108h330v-1902h-330v110z" />
<glyph unicode="^" horiz-adv-x="1229" d="M90 492l471 938h107l471 -938h-117l-410 806l-403 -806h-119z" />
<glyph unicode="_" horiz-adv-x="1024" d="M0 -156h1024v-102h-1024v102z" />
<glyph unicode="`" horiz-adv-x="379" d="M-63 1507h159l215 -290h-104z" />
<glyph unicode="a" horiz-adv-x="1063" d="M66 284q0 105 46.5 169t125 97t149.5 44t189.5 24.5t151.5 25.5q71 24 71 137t-74.5 160.5t-201 47.5t-203.5 -62.5t-80 -185.5h-129q9 180 123.5 268.5t304.5 88.5q389 0 389 -342v-568q0 -77 76 -77q20 0 40 8v-111q-37 -8 -83 -8q-92 0 -122 45.5t-30 140.5h-4 q-75 -115 -159 -166t-205 -51t-201 34t-127 105t-47 176zM195 289q0 -60 33 -109q67 -102 202 -102q98 0 183 40.5t135.5 117t50.5 178.5v170h-4q-16 -31 -118.5 -48t-222.5 -38t-189.5 -67t-69.5 -142z" />
<glyph unicode="b" horiz-adv-x="1176" d="M123 0v1477h129v-613h4q41 113 142 173.5t222 60.5t211 -44.5t149 -121.5q118 -154 118 -397q0 -246 -118 -399q-129 -167 -357 -167q-128 0 -230 63t-147 171h-4v-203h-119zM252 534.5q0 -188.5 90.5 -322.5t280.5 -134q171 0 263 143q83 128 83 328q0 103 -37 207 t-115.5 168.5t-193.5 64.5q-190 0 -280.5 -133t-90.5 -321.5z" />
<glyph unicode="c" horiz-adv-x="1063" d="M70 514.5q0 136.5 32.5 238.5t96.5 179q137 166 370 166q242 0 357 -165q58 -83 71 -200h-129q-26 122 -101 189t-181 67t-177 -38t-117 -101q-93 -131 -93 -315q0 -117 42 -222.5t126.5 -170t203 -64.5t206.5 86t100 219h129q-24 -190 -144 -303q-116 -111 -283 -111 t-280 76t-171 204.5t-58 265z" />
<glyph unicode="d" horiz-adv-x="1176" d="M78 535q0 241 118 396q127 167 357 167q124 0 225 -60.5t142 -173.5h4v613h129v-1477h-119v203h-4q-58 -142 -223 -205q-76 -29 -172.5 -29t-187 43.5t-151.5 123.5q-118 158 -118 399zM207 535q0 -187 83 -314q92 -143 263 -143q129 0 213 65q158 123 158 392 q0 189 -90 321.5t-281 132.5q-171 0 -263 -141q-83 -129 -83 -313z" />
<glyph unicode="e" horiz-adv-x="1063" d="M70 535q0 233 115 391q126 172 362 172q232 0 354 -177q111 -162 111 -423h-813q2 -164 89.5 -292t258.5 -128q135 0 218 73.5t114 200.5h129q-91 -383 -461 -383q-238 0 -363 166q-114 153 -114 400zM199 608h684q-3 98 -44 186.5t-116 141.5t-175.5 53t-176.5 -53 q-147 -103 -172 -328z" />
<glyph unicode="f" horiz-adv-x="530" d="M12 958v109h181v98q0 100 22 168q47 144 234 144q55 0 108 -9v-110q-58 10 -109 10t-81.5 -26t-36.5 -63t-8 -118v-94h208v-109h-208v-958h-129v958h-181z" />
<glyph unicode="g" d="M70 561q0 147 56.5 270.5t164.5 195t238 71.5t222 -61.5t132 -153.5h4v184h129v-981q-2 -167 -48 -279q-94 -233 -421 -233q-245 0 -367 140q-62 73 -71 182h129q20 -110 105 -161.5t204 -51.5q340 0 340 403v145h-4q-46 -100 -135 -159.5t-226.5 -59.5t-244.5 72 q-207 139 -207 477zM199 547q0 -112 38.5 -209t117 -156t188 -59t188 59.5t117.5 157t39 207t-35.5 212t-112.5 166.5t-193 64t-194 -62q-153 -122 -153 -380z" />
<glyph unicode="h" horiz-adv-x="1100" d="M121 0v1477h129v-594h4q48 130 193 188q68 27 145 27q276 0 351 -188q36 -90 36 -224v-686h-129v666q0 152 -60 237.5t-208 85.5q-100 0 -174.5 -47t-115.5 -131.5t-42 -187.5v-623h-129z" />
<glyph unicode="i" horiz-adv-x="379" d="M125 0v1067h129v-1067h-129zM125 1268v209h129v-209h-129z" />
<glyph unicode="j" horiz-adv-x="379" d="M-61 -283q20 -2 79.5 -2t83 39.5t23.5 114.5v1198h129v-1165q0 -136 -49.5 -216.5t-175.5 -80.5l-90 4v108zM125 1268v209h129v-209h-129z" />
<glyph unicode="k" horiz-adv-x="1024" d="M123 0v1477h129v-926l586 516h172l-451 -395l481 -672h-161l-418 582l-209 -176v-406h-129z" />
<glyph unicode="l" horiz-adv-x="379" d="M125 0v1477h129v-1477h-129z" />
<glyph unicode="m" horiz-adv-x="1706" d="M123 0v1067h119v-180h6q112 211 346 211q110 0 193 -53.5t110 -155.5q46 103 137 156t199 53q350 0 350 -373v-725h-129v717q0 138 -57.5 205t-176.5 67t-184 -53q-118 -94 -118 -332v-604h-130v725q0 164 -94 229q-49 35 -127 35q-160 0 -236.5 -107t-78.5 -286v-596 h-129z" />
<glyph unicode="n" horiz-adv-x="1100" d="M121 0v1067h129v-184h4q48 130 193 188q68 27 145 27q276 0 351 -188q36 -90 36 -224v-686h-129v666q0 152 -60 237.5t-208 85.5q-100 0 -174.5 -47t-115.5 -131.5t-42 -187.5v-623h-129z" />
<glyph unicode="o" d="M70 514.5q0 136.5 32.5 238.5t96.5 179.5t158 121.5t212.5 44t213.5 -44.5t157 -121.5q129 -157 129 -397q0 -157 -58 -285.5t-171 -204.5t-270.5 -76t-270.5 76t-171 204.5t-58 265zM199 535q0 -117 42 -222.5t126.5 -170t202 -64.5t202 64.5t126.5 170t42 207 t-24.5 184.5t-69.5 145.5t-116 101t-160.5 38.5t-160.5 -38t-117 -101q-93 -131 -93 -315z" />
<glyph unicode="p" horiz-adv-x="1176" d="M123 -395v1462h119v-203h4q62 148 218 206q77 28 177 28t190 -44.5t149 -121.5q118 -154 118 -397q0 -246 -118 -399q-129 -167 -357 -167q-124 0 -225.5 62t-141.5 172h-4v-598h-129zM252 541.5q0 -195.5 90.5 -329.5t280.5 -134q171 0 263 143q83 128 83 328 q0 103 -37 207t-115.5 168.5t-193.5 64.5q-199 0 -285 -126t-86 -321.5z" />
<glyph unicode="q" horiz-adv-x="1176" d="M78 535q0 241 118 396q127 167 357 167q165 0 289 -110q59 -53 88 -124h4v203h119v-1462h-129v598h-4q-40 -110 -141.5 -172t-221 -62t-210 43.5t-151.5 123.5q-118 158 -118 399zM207 535q0 -187 83 -314q92 -143 263 -143q129 0 213 65q158 123 158 392 q0 189 -90 321.5t-281 132.5q-171 0 -263 -141q-83 -129 -83 -313z" />
<glyph unicode="r" horiz-adv-x="645" d="M123 0v1067h119v-250h4q101 264 399 264v-129q-119 0 -208.5 -51t-137 -137.5t-47.5 -194.5v-569h-129z" />
<glyph unicode="s" horiz-adv-x="985" d="M63 346h130q7 -128 92.5 -198t218.5 -70q158 0 244 89q45 46 45 122t-62.5 118.5t-169.5 67.5l-166 37q-100 29 -161 60q-134 68 -134 227q0 102 58 169q111 130 340 130t332 -153q51 -77 55 -189h-129q-6 152 -138 207q-62 26 -150.5 26t-163.5 -44t-75 -130.5 t63.5 -126.5t156.5 -63l172 -39q178 -28 259 -146q42 -63 42 -161.5t-62 -171t-160 -105.5t-202 -33q-190 0 -304.5 93.5t-130.5 283.5z" />
<glyph unicode="t" horiz-adv-x="606" d="M14 958v109h185v322h129v-322h215v-109h-215v-720q0 -69 14 -94q26 -42 90 -48q62 0 111 8v-112l-115 -4q-89 0 -137.5 22t-70 73t-21.5 144v731h-185z" />
<glyph unicode="u" horiz-adv-x="1100" d="M121 375v692h129v-694q5 -149 69.5 -222t212.5 -73q159 0 242 130q76 122 76 298v561h129v-1067h-119v193h-4q-50 -106 -147 -165t-217 -59q-371 0 -371 406z" />
<glyph unicode="v" horiz-adv-x="948" d="M4 1067h143l332 -936h4l328 936h133l-395 -1067h-137z" />
<glyph unicode="w" horiz-adv-x="1518" d="M16 1067h138l270 -913h4l258 913h145l259 -913h4l270 913h137l-340 -1067h-141l-260 897h-4l-258 -897h-142z" />
<glyph unicode="x" horiz-adv-x="985" d="M2 0l410 555l-379 512h162l301 -405l295 405h161l-381 -510l412 -557h-164l-332 449l-325 -449h-160z" />
<glyph unicode="y" horiz-adv-x="948" d="M4 1067h137l348 -909l326 909h129l-459 -1231q-38 -94 -71 -142.5t-80 -68.5q-44 -19 -116 -19h-12q-80 2 -97 9v111q47 -11 94.5 -11t79.5 19t53 54t45 93l45 123z" />
<glyph unicode="z" horiz-adv-x="948" d="M31 0v106l690 852h-643v109h807v-92l-699 -864h727v-111h-882z" />
<glyph unicode="{" horiz-adv-x="682" d="M170 500v110q147 0 147 332v307q0 119 47.5 188.5t133.5 69.5h102v-108h-41q-58 0 -85.5 -60.5t-27.5 -152.5v-293q0 -100 -28 -173q-46 -124 -115 -161v-4q24 -13 56.5 -51.5t59.5 -111.5t27 -173v-291q0 -93 27.5 -153t85.5 -60h41v-110h-102q-85 0 -133 70.5 t-48 187.5v307q0 330 -147 330z" />
<glyph unicode="|" horiz-adv-x="455" d="M174 -31v1538h109v-1538h-109z" />
<glyph unicode="}" horiz-adv-x="682" d="M82 -285h41q58 0 85.5 60t27.5 153v291q0 144 51 229t92 107v4q-42 23 -92.5 107t-50.5 227v293q0 92 -27.5 152.5t-85.5 60.5h-41v108h102q116 0 160 -121q21 -57 21 -137v-305q0 -332 147 -332v-110q-147 0 -147 -330v-309q0 -119 -48 -188.5t-133 -69.5h-102v110z" />
<glyph unicode="~" horiz-adv-x="1229" d="M141 465q91 178 256 178q82 0 236 -65q25 -10 43.5 -19t61.5 -25q65 -26 108 -26t83 37.5t85 105.5l73 -73q-57 -84 -115 -131.5t-127.5 -47.5t-118 17t-118.5 50q-143 69 -213 69t-109.5 -38.5t-70.5 -105.5z" />
<glyph horiz-adv-x="1802" d="M0 264q2 89 61 156t152 67q49 0 49 -49q0 -28 -48 -49.5t-71.5 -41.5t-23.5 -83t49 -98t123 -35q4 2 8 2q70 0 138.5 26t113.5 75t45 106.5t-30 114.5t-88 143.5t-88 150.5t-30 130q0 201 197 376q89 81 204 138t201.5 57t133.5 -37t47 -106q0 -22 -6 -43 q88 80 202.5 136t202 56t134 -37t46.5 -113q0 -141 -206 -307q-188 -141 -269 -141q-19 0 -38 14t-19 33l2 4q0 40 70 66q110 36 194 103q158 123 158 212q0 31 -19 48.5t-68.5 17.5t-134.5 -40t-154 -93.5t-127 -142t-58 -166t30.5 -141.5t90.5 -155.5t91 -151t31 -116.5 q0 -92 -64 -164.5t-162 -111.5t-187 -39q-191 0 -262 110q-61 -54 -149 -85t-179.5 -31t-160.5 33q-132 64 -132 202zM473 916q0 -70 20.5 -123t45 -94t76.5 -123t69 -119q61 37 96 37q62 0 62 -50q0 -19 -12.5 -29.5t-40 -21t-46.5 -21.5q-45 -28 -45 -114q6 -57 54 -89 t118 -32q4 2 9 2q70 0 138.5 26t113.5 75t45 106.5t-30 114.5t-88 143.5t-88 150.5t-30 131.5t23 133.5q-5 -4 -14 -14t-43.5 -37t-112 -72t-111.5 -45t-53 14t-19 33l2 4q0 40 70 66q108 35 207 110q145 121 145 205q0 31 -19 48.5t-67.5 17.5t-133 -39.5t-155.5 -94 t-128.5 -142.5t-57.5 -158zM1300 86q0 60 68 212t151 281.5t115 129.5q16 0 27.5 -10.5t11.5 -27t-55 -102.5q-142 -219 -209 -444q-14 -50 -24 -69t-34.5 -19t-37.5 15t-13 34zM1706 954q0 26 21 62t50.5 62t55.5 26q49 0 49 -49q0 -27 -21.5 -63.5t-51.5 -62.5t-56 -26 q-47 0 -47 51z" />
<glyph unicode="&#xa1;" horiz-adv-x="494" d="M162 848v219h172v-219h-172zM178 31l31 667h78l30 -667v-426h-139v426z" />
<glyph unicode="&#xa2;" d="M111 534.5q0 145.5 51 268t151.5 200.5t239.5 91v184h80v-180q228 -6 337 -170q55 -83 68 -195h-129q-25 118 -94 185t-182 71v-911q155 10 237 154q39 68 48 151h129q-16 -122 -72 -215q-116 -191 -342 -199v-209h-80v211q-140 15 -240 93t-151 201.5t-51 269zM240 535 q0 -166 81 -297.5t232 -157.5v905q-101 -14 -171 -81q-142 -134 -142 -369z" />
<glyph unicode="&#xa3;" d="M88 80q105 83 167 176t62 209q0 50 -16.5 114t-40.5 103h-166v68h129q-112 184 -112 328.5t65.5 240.5t171.5 142t224 46t206 -33t149 -96q126 -129 126 -360h-129q0 237 -158 333q-78 48 -177.5 48t-177.5 -36.5t-124.5 -110.5t-46.5 -157t16.5 -130.5t51.5 -111 t52 -103.5h328v-68h-291q22 -33 35.5 -91t13.5 -110q0 -193 -225 -375l4 -6q116 64 205.5 64t202.5 -41q103 -45 171 -45t133 34.5t107 82.5l66 -101q-141 -125 -299 -125q-94 0 -217 39q-118 45 -196 45t-113 -15.5t-123 -68.5z" />
<glyph unicode="&#xa4;" d="M59 281l117 118q-113 134 -113 314.5t111 320.5l-115 117l78 78l115 -117q136 117 317.5 117t315.5 -115l112 115l78 -78l-110 -113q114 -138 114 -322.5t-114 -322.5l110 -112l-78 -78l-112 114q-134 -114 -315 -114t-318 116l-115 -116zM193 715.5q0 -107.5 50.5 -198 t138 -142t176.5 -51.5t159.5 30t122.5 82q110 113 110 279q0 108 -50.5 198.5t-138.5 142.5t-190 52t-189 -51.5t-138 -142.5t-51 -198.5z" />
<glyph unicode="&#xa5;" d="M12 1477h148l407 -756l412 756h141l-432 -756h223v-92h-268l-12 -21v-151h280v-92h-280v-365h-129v365h-277v92h277v151l-13 21h-264v92h217z" />
<glyph unicode="&#xa6;" horiz-adv-x="455" d="M174 -31v570h109v-570h-109zM174 940v567h109v-567h-109z" />
<glyph unicode="&#xa7;" d="M92 696q0 97 64.5 176t158.5 115q-102 91 -102 225.5t104.5 214.5t230.5 80t211.5 -42t132 -125.5t46.5 -196.5h-129q0 72 -30.5 131t-85 92t-118 33t-116 -19.5t-85 -61.5t-32.5 -104q0 -103 82 -168t260.5 -159.5t270.5 -183t92 -221.5t-110 -226q-51 -43 -114 -68 q103 -89 103 -225q0 -92 -49.5 -159t-129.5 -102.5t-167 -35.5q-175 0 -277 96t-102 271h129q0 -72 30.5 -131t84.5 -92t136 -33t149 46.5t67 144t-83 162.5t-261 159t-269.5 182t-91.5 225zM221 700q0 -72 51 -132t115 -102.5t186.5 -110.5t171.5 -103q173 73 173 223 q0 77 -53 140.5t-124 107.5t-189 107t-163 94q-168 -70 -168 -224z" />
<glyph unicode="&#xa8;" horiz-adv-x="379" d="M-61 1251v209h139v-209h-139zM301 1251v209h139v-209h-139z" />
<glyph unicode="&#xa9;" horiz-adv-x="1638" d="M57 739q0 324 221 547q220 221 541 221q158 0 298 -58t245 -164t162 -246.5t57 -300t-56.5 -299.5t-161 -245.5t-245.5 -165t-299.5 -59.5t-297.5 58.5t-244 164.5q-220 224 -220 547zM176 739q0 -277 183 -467q186 -194 460 -194t459 192q87 89 135.5 211.5t48.5 258 t-48.5 258t-135.5 211.5q-184 190 -459 190q-274 0 -460 -192q-183 -189 -183 -468zM393 738.5q0 137.5 53.5 245t154 168t217.5 60.5t198 -36.5t134.5 -108t66.5 -168.5h-105q-11 59 -48 110q-76 105 -224 109q-108 0 -184 -49q-154 -99 -154 -330q0 -168 89 -274.5 t249 -106.5q108 0 180.5 62t91.5 158h105q-13 -97 -66 -168q-108 -146 -313 -146q-137 0 -237.5 61t-154 168.5t-53.5 245z" />
<glyph unicode="&#xaa;" horiz-adv-x="637" d="M-10 974q0 115 89.5 150t278.5 54q59 7 84 19t25 44q0 78 -47.5 108.5t-127 30.5t-130 -37.5t-51.5 -107.5h-97q14 225 287 225q117 0 189.5 -44.5t72.5 -162.5v-356q3 -47 51 -47q15 0 27 6v-70q-42 -6 -68 -6t-48 13q-38 22 -38 102h-4q-83 -133 -252 -133 q-110 0 -175.5 48.5t-65.5 163.5zM86 965q0 -53 44.5 -88t96.5 -35q101 0 170.5 54t69.5 142v97h-4q-8 -18 -62 -27t-123 -19.5t-106 -21.5q-86 -25 -86 -102z" />
<glyph unicode="&#xab;" horiz-adv-x="872" d="M123 504v129l272 258v-137l-192 -185l192 -184v-139zM453 504v129l272 258v-137l-193 -185l193 -184v-139z" />
<glyph unicode="&#xac;" horiz-adv-x="1229" d="M100 672v110h1030v-553h-108v443h-922z" />
<glyph unicode="&#xad;" horiz-adv-x="758" d="M123 508v121h512v-121h-512z" />
<glyph unicode="&#xae;" horiz-adv-x="1638" d="M57 739q0 324 221 547q220 221 540 221q159 0 299 -58t245 -164t162 -246.5t57 -300t-56.5 -299.5t-161 -245.5t-245.5 -165t-299.5 -59.5t-297.5 58.5t-244 164.5q-220 224 -220 547zM176 739q0 -277 183 -467q186 -194 460 -194t459 192q87 89 135.5 211.5t48.5 258 t-48.5 258t-135 211.5t-204.5 139.5t-254 50.5t-254.5 -50.5t-206.5 -141.5q-183 -189 -183 -468zM543 293v891h338q286 0 286 -246q0 -144 -108 -210q-49 -29 -113 -40l262 -395h-127l-247 395h-183v-395h-108zM651 782h144q88 0 141 8q123 20 123 148q0 152 -209 152h-199 v-308z" />
<glyph unicode="&#xaf;" horiz-adv-x="379" d="M-147 1311v94h673v-94h-673z" />
<glyph unicode="&#xb0;" horiz-adv-x="819" d="M115 1162q0 123 85.5 210.5t209.5 87.5q79 0 147.5 -40t108 -109t39.5 -149t-39.5 -149t-108 -109t-147.5 -40q-124 0 -209.5 87.5t-85.5 210.5zM195 1162.5q0 -90.5 63 -153.5t152 -63t152 63t63 153.5t-62.5 154t-152.5 63.5t-152.5 -63.5t-62.5 -154z" />
<glyph unicode="&#xb1;" horiz-adv-x="1229" d="M100 0v111h1030v-111h-1030zM102 559v109h459v372h109v-372h460v-109h-460v-373h-109v373h-459z" />
<glyph unicode="&#xb2;" horiz-adv-x="682" d="M31 567q5 162 146 268q57 43 156 104.5t143 102.5q83 77 83 161t-61.5 130.5t-156.5 46.5t-145.5 -68.5t-50.5 -166.5h-96q0 146 76.5 230.5t230.5 84.5q185 0 261 -114q38 -58 38 -150.5t-63.5 -164.5t-142 -119t-121 -72t-78.5 -50q-86 -63 -109 -143h508v-80h-618z " />
<glyph unicode="&#xb3;" horiz-adv-x="682" d="M14 852h97q0 -102 60.5 -162.5t164.5 -60.5q134 0 202 87q33 43 33 98.5t-30 94.5q-62 80 -195 80h-72v80h72q74 0 132.5 40.5t58.5 114.5t-58 115t-149 41t-145 -59.5t-54 -153.5h-96q2 130 81.5 211.5t212.5 81.5t218.5 -57.5t85.5 -171.5q0 -72 -41.5 -123.5 t-116.5 -69.5v-4q91 -12 142 -69t51 -143t-44 -148q-89 -125 -286 -125q-204 0 -284 136q-40 69 -40 167z" />
<glyph unicode="&#xb4;" horiz-adv-x="379" d="M68 1217l215 290h159l-270 -290h-104z" />
<glyph unicode="&#xb5;" horiz-adv-x="1100" d="M121 -395v1462h129v-694q5 -149 69.5 -222t212.5 -73q159 0 242 130q76 122 76 298v561h129v-1067h-119v193h-4q-50 -106 -147 -165t-229 -59t-228 72v-436h-131z" />
<glyph unicode="&#xb6;" horiz-adv-x="1229" d="M135 1071q0 261 211 359q103 47 246 47h471v-1844h-129v1735h-246v-1735h-129v1045q-179 0 -302 117q-122 116 -122 276z" />
<glyph unicode="&#xb8;" horiz-adv-x="379" d="M-12 -383l28 66q68 -29 138 -29q133 0 133 90q0 36 -25 57t-80 21t-88 -17l-33 31l125 164h72l-90 -121q30 6 83.5 6t104 -31t50.5 -97t-34 -106q-64 -77 -180.5 -77t-203.5 43z" />
<glyph unicode="&#xb9;" horiz-adv-x="682" d="M72 1208v80q84 2 134 11q104 19 128 143h82v-875h-97v641h-247z" />
<glyph unicode="&#xba;" horiz-adv-x="684" d="M6 1110q0 97 38 178t111.5 126.5t181 45.5t185.5 -45.5t117 -126t39 -178.5q0 -212 -156 -302q-78 -46 -185.5 -46t-181 45.5t-111.5 125.5t-38 177zM102 1110q0 -68 28 -129.5t82 -100t130 -38.5t130 38q110 79 110 230q0 153 -110 231q-54 39 -130 39t-130 -39 q-110 -78 -110 -231z" />
<glyph unicode="&#xbb;" horiz-adv-x="872" d="M147 246v139l193 184l-193 185v137l273 -258v-129zM477 246v139l193 184l-193 185v137l273 -258v-129z" />
<glyph unicode="&#xbc;" horiz-adv-x="1708" d="M98 1208v80q85 2 134 11q105 19 128 143h82v-875h-96v641h-248zM272 -70l928 1569h96l-925 -1569h-99zM885 207v80l436 587h90v-587h139v-80h-139v-207h-96v207h-430zM979 287h336v448h-4z" />
<glyph unicode="&#xbd;" horiz-adv-x="1708" d="M98 1208v80q85 2 134 11q105 19 128 143h82v-875h-96v641h-248zM272 -70l928 1569h96l-925 -1569h-99zM983 0q3 119 69 193t199.5 157.5t176.5 124.5q83 79 83 162.5t-62 129.5t-156.5 46t-144.5 -67t-50 -168h-97q0 200 135 276q70 39 165.5 39t162.5 -29 q144 -60 144 -229q0 -99 -62.5 -170.5t-173.5 -136.5q-2 -1 -87.5 -52.5t-130.5 -95.5t-60 -100h508v-80h-619z" />
<glyph unicode="&#xbe;" horiz-adv-x="1708" d="M14 852h97q0 -102 60.5 -162.5t164.5 -60.5q134 0 202 87q33 43 33 98.5t-30 94.5q-62 80 -195 80h-72v80h72q74 0 132.5 40.5t58.5 114.5t-58 115t-149 41t-145 -59.5t-54 -153.5h-96q2 130 81.5 211.5t212.5 81.5t218.5 -57.5t85.5 -171.5q0 -72 -41.5 -123.5 t-116.5 -69.5v-4q91 -12 142 -69t51 -143t-44 -148q-89 -125 -286 -125q-204 0 -284 136q-40 69 -40 167zM352 -70l928 1569h96l-925 -1569h-99zM883 207v80l436 587h90v-587h139v-80h-139v-207h-96v207h-430zM977 287h336v448h-4z" />
<glyph unicode="&#xbf;" horiz-adv-x="1100" d="M111 -43q0 139 81 245q39 50 90 99.5t101 100t66 81.5q26 51 30 228h129q0 -222 -90 -333q-43 -53 -145 -149q-133 -124 -133 -256t86 -211t200 -79t188 49q148 96 148 327h129q0 -220 -122.5 -352.5t-342.5 -132.5q-176 0 -292 102q-123 107 -123 281zM457 848v219h172 v-219h-172z" />
<glyph unicode="&#xc0;" horiz-adv-x="1290" d="M-14 0l589 1477h156l574 -1477h-150l-178 459h-666l-176 -459h-149zM354 580h576l-283 755zM393 1886h160l215 -291h-104z" />
<glyph unicode="&#xc1;" horiz-adv-x="1290" d="M-14 0l589 1477h156l574 -1477h-150l-178 459h-666l-176 -459h-149zM354 580h576l-283 755zM524 1595l215 291h160l-270 -291h-105z" />
<glyph unicode="&#xc2;" horiz-adv-x="1290" d="M-14 0l589 1477h156l574 -1477h-150l-178 459h-666l-176 -459h-149zM342 1595l233 291h142l233 -291h-133l-176 211l-180 -211h-119zM354 580h576l-283 755z" />
<glyph unicode="&#xc3;" horiz-adv-x="1290" d="M-14 0l589 1477h156l574 -1477h-150l-178 459h-666l-176 -459h-149zM324 1636q13 116 92 172q39 27 95 27q58 0 185 -63q57 -27 86 -27q76 0 107 98h78q-12 -80 -58 -138t-114 -58q-81 0 -209 69q-48 27 -84.5 27t-67.5 -28.5t-31 -78.5h-79zM354 580h576l-283 755z" />
<glyph unicode="&#xc4;" horiz-adv-x="1290" d="M-14 0l589 1477h156l574 -1477h-150l-178 459h-666l-176 -459h-149zM354 580h576l-283 755zM395 1630v209h140v-209h-140zM758 1630v209h139v-209h-139z" />
<glyph unicode="&#xc5;" horiz-adv-x="1290" d="M-14 0l589 1477h156l574 -1477h-150l-178 459h-666l-176 -459h-149zM354 580h576l-283 755zM428 1764q0 75 29.5 126t80 81t125 30t139 -64.5t64.5 -156.5t-64 -158t-155 -66t-155 66.5t-64 141.5zM508 1780q0 -59 40.5 -100.5t98.5 -41.5t98.5 41.5t40.5 100.5t-40 99 t-99 40t-99 -40t-40 -99z" />
<glyph unicode="&#xc6;" horiz-adv-x="1858" d="M-14 0l766 1477h1050v-119h-751v-535h704v-121h-704v-581h759v-121h-899v467h-530l-238 -467h-157zM442 588h469v770h-82z" />
<glyph unicode="&#xc7;" horiz-adv-x="1442" d="M78 739q0 322 175 539q184 229 515 229q139 0 268 -56t216 -164.5t104 -256.5h-139q-36 166 -163 264q-121 95 -295 95t-299 -92t-184 -240.5t-59 -296t32 -261.5t100.5 -208.5t175 -148.5t240 -54t236 62.5t163 171.5t73.5 241h139q-19 -178 -98.5 -313.5t-211.5 -208 t-299 -72.5t-297 62t-217 169q-175 217 -175 539zM520 -383l29 66q73 -29 140 -29q130 0 130 90q0 36 -25 57t-80.5 21t-86.5 -17l-33 31l125 164h72l-91 -121q31 6 85 6t103.5 -31t49.5 -97t-33 -105q-65 -78 -180.5 -78t-204.5 43z" />
<glyph unicode="&#xc8;" horiz-adv-x="1214" d="M147 0v1477h1010v-119h-870v-535h815v-121h-815v-581h880v-121h-1020zM354 1886h160l215 -291h-104z" />
<glyph unicode="&#xc9;" horiz-adv-x="1214" d="M147 0v1477h1010v-119h-870v-535h815v-121h-815v-581h880v-121h-1020zM485 1595l215 291h160l-270 -291h-105z" />
<glyph unicode="&#xca;" horiz-adv-x="1214" d="M147 0v1477h1010v-119h-870v-535h815v-121h-815v-581h880v-121h-1020zM303 1595l234 291h141l233 -291h-133l-176 211l-180 -211h-119z" />
<glyph unicode="&#xcb;" horiz-adv-x="1214" d="M147 0v1477h1010v-119h-870v-535h815v-121h-815v-581h880v-121h-1020zM356 1630v209h140v-209h-140zM719 1630v209h139v-209h-139z" />
<glyph unicode="&#xcc;" horiz-adv-x="455" d="M-25 1886h160l215 -291h-104zM158 0v1477h139v-1477h-139z" />
<glyph unicode="&#xcd;" horiz-adv-x="455" d="M106 1595l216 291h159l-270 -291h-105zM158 0v1477h139v-1477h-139z" />
<glyph unicode="&#xce;" horiz-adv-x="455" d="M-76 1595l234 291h141l233 -291h-133l-176 211l-180 -211h-119zM158 0v1477h139v-1477h-139z" />
<glyph unicode="&#xcf;" horiz-adv-x="455" d="M-23 1630v209h140v-209h-140zM158 0v1477h139v-1477h-139zM340 1630v209h139v-209h-139z" />
<glyph unicode="&#xd0;" horiz-adv-x="1403" d="M0 719v94h147v664h506q498 -9 629 -419q43 -136 43 -319q0 -542 -379 -687q-125 -47 -293 -52h-506v719h-147zM287 121h297q317 0 459 144q143 145 143 474t-142 474q-143 145 -460 145h-297v-545h483v-94h-483v-598z" />
<glyph unicode="&#xd1;" horiz-adv-x="1442" d="M145 0v1477h156l852 -1250h4v1250h139v-1477h-155l-852 1249h-4v-1249h-140zM399 1636q14 116 93 172q39 27 95 27t146 -45t125 -45q76 0 107 98h77q-18 -114 -88 -167q-38 -29 -94 -29q-70 0 -198 69q-48 27 -84.5 27t-67.5 -28.5t-31 -78.5h-80z" />
<glyph unicode="&#xd2;" horiz-adv-x="1518" d="M70 740q0 155 44 292.5t131 245.5q184 229 515 229q329 0 514 -229q174 -214 174 -539t-173 -539q-187 -231 -515 -231t-515 231q-175 217 -175 540zM209 760.5q0 -147.5 32 -261.5t100.5 -208.5t175 -148.5t266 -54t284 92t183.5 240.5t59 318t-59 318t-183.5 240.5 t-307 92t-307.5 -92t-184 -240.5t-59 -296zM506 1886h160l215 -291h-105z" />
<glyph unicode="&#xd3;" horiz-adv-x="1518" d="M70 740q0 155 44 292.5t131 245.5q184 229 515 229q329 0 514 -229q174 -214 174 -539t-173 -539q-187 -231 -515 -231t-515 231q-175 217 -175 540zM209 760.5q0 -147.5 32 -261.5t100.5 -208.5t175 -148.5t266 -54t284 92t183.5 240.5t59 318t-59 318t-183.5 240.5 t-307 92t-307.5 -92t-184 -240.5t-59 -296zM637 1595l215 291h160l-271 -291h-104z" />
<glyph unicode="&#xd4;" horiz-adv-x="1518" d="M70 740q0 155 44 292.5t131 245.5q184 229 515 229q329 0 514 -229q174 -214 174 -539t-173 -539q-187 -231 -515 -231t-515 231q-175 217 -175 540zM209 760.5q0 -147.5 32 -261.5t100.5 -208.5t175 -148.5t266 -54t284 92t183.5 240.5t59 318t-59 318t-183.5 240.5 t-307 92t-307.5 -92t-184 -240.5t-59 -296zM455 1595l233 291h141l234 -291h-133l-176 211l-181 -211h-118z" />
<glyph unicode="&#xd5;" horiz-adv-x="1518" d="M70 740q0 155 44 292.5t131 245.5q184 229 515 229q329 0 514 -229q174 -214 174 -539t-173 -539q-187 -231 -515 -231t-515 231q-175 217 -175 540zM209 760.5q0 -147.5 32 -261.5t100.5 -208.5t175 -148.5t266 -54t284 92t183.5 240.5t59 318t-59 318t-183.5 240.5 t-307 92t-307.5 -92t-184 -240.5t-59 -296zM436 1636q13 115 92 172q38 27 82 27q70 0 160 -45t125 -45q76 0 106 98h78q-18 -114 -89 -167q-37 -29 -94 -29q-67 0 -195 69q-51 27 -87 27t-67 -28.5t-31 -78.5h-80z" />
<glyph unicode="&#xd6;" horiz-adv-x="1518" d="M70 740q0 155 44 292.5t131 245.5q184 229 515 229q329 0 514 -229q174 -214 174 -539t-173 -539q-187 -231 -515 -231t-515 231q-175 217 -175 540zM209 760.5q0 -147.5 32 -261.5t100.5 -208.5t175 -148.5t266 -54t284 92t183.5 240.5t59 318t-59 318t-183.5 240.5 t-307 92t-307.5 -92t-184 -240.5t-59 -296zM508 1630v209h139v-209h-139zM870 1630v209h140v-209h-140z" />
<glyph unicode="&#xd7;" horiz-adv-x="1229" d="M152 129l385 391l-385 389l75 78l387 -391l387 391l76 -78l-387 -389l387 -391l-76 -78l-387 389l-387 -389z" />
<glyph unicode="&#xd8;" horiz-adv-x="1518" d="M70 739q0 322 175 539q184 229 515 229q291 0 471 -182l145 162l54 -47l-150 -168q168 -207 168 -533q0 -325 -173 -539q-187 -231 -515 -231q-292 0 -473 185l-156 -179l-55 52l162 182q-168 215 -168 530zM209 739q0 -257 119 -428l815 916q-149 162 -383 162 q-183 0 -308 -92t-184 -240.5t-59 -317.5zM375 252q147 -164 385 -164q182 0 306.5 92t183.5 240.5t59 294.5q0 285 -121 454z" />
<glyph unicode="&#xd9;" horiz-adv-x="1403" d="M133 532v945h139v-914q0 -330 195 -427q95 -48 233 -48q210 0 320 113t110 362v914h140v-945q0 -158 -59.5 -285.5t-186.5 -202.5t-323 -75t-323 75q-245 145 -245 488zM449 1886h159l215 -291h-104z" />
<glyph unicode="&#xda;" horiz-adv-x="1403" d="M133 532v945h139v-914q0 -330 195 -427q95 -48 233 -48q210 0 320 113t110 362v914h140v-945q0 -158 -59.5 -285.5t-186.5 -202.5t-323 -75t-323 75q-245 145 -245 488zM580 1595l215 291h159l-270 -291h-104z" />
<glyph unicode="&#xdb;" horiz-adv-x="1403" d="M133 532v945h139v-914q0 -330 195 -427q95 -48 233 -48q210 0 320 113t110 362v914h140v-945q0 -158 -59.5 -285.5t-186.5 -202.5t-323 -75t-323 75q-245 145 -245 488zM397 1595l234 291h141l234 -291h-134l-176 211l-180 -211h-119z" />
<glyph unicode="&#xdc;" horiz-adv-x="1403" d="M133 532v945h139v-914q0 -330 195 -427q95 -48 233 -48q210 0 320 113t110 362v914h140v-945q0 -158 -59.5 -285.5t-186.5 -202.5t-323 -75t-323 75q-245 145 -245 488zM451 1630v209h139v-209h-139zM813 1630v209h139v-209h-139z" />
<glyph unicode="&#xdd;" horiz-adv-x="1251" d="M-20 1477h165l482 -748l479 748h166l-578 -869v-608h-139v608zM504 1595l215 291h160l-271 -291h-104z" />
<glyph unicode="&#xde;" horiz-adv-x="1290" d="M147 0v1477h140v-242h510q199 0 316 -111q118 -113 118 -311q0 -131 -53.5 -226t-151.5 -145.5t-229 -50.5h-510v-391h-140zM287 510h479q149 0 237.5 77.5t88.5 226t-87.5 224.5t-238.5 76h-479v-604z" />
<glyph unicode="&#xdf;" horiz-adv-x="1100" d="M125 0v1106q0 264 192 357q91 44 208.5 44t209.5 -42t145.5 -124.5t53.5 -196.5t-62 -201t-170 -109v-5q144 -12 228 -125q78 -108 78 -257t-58 -251q-115 -201 -397 -212q-68 0 -102 4v112q43 -8 114.5 -8t146.5 34.5t121 109.5t46 199.5t-52.5 199t-145 101 t-230.5 26.5v108q156 0 255 61.5t99 209.5q0 71 -36.5 131t-99.5 93.5t-134 33.5q-149 0 -215 -76.5t-66 -226.5v-1096h-129z" />
<glyph unicode="&#xe0;" horiz-adv-x="1063" d="M66 284q0 105 46.5 169t125 97t149.5 44t189.5 24.5t151.5 25.5q71 24 71 137t-74.5 160.5t-201 47.5t-203.5 -62.5t-80 -185.5h-129q9 180 123.5 268.5t304.5 88.5q389 0 389 -342v-568q0 -77 76 -77q20 0 40 8v-111q-37 -8 -83 -8q-92 0 -122 45.5t-30 140.5h-4 q-75 -115 -159 -166t-205 -51t-201 34t-127 105t-47 176zM195 289q0 -60 33 -109q67 -102 202 -102q98 0 183 40.5t135.5 117t50.5 178.5v170h-4q-16 -31 -118.5 -48t-222.5 -38t-189.5 -67t-69.5 -142zM279 1507h159l215 -290h-104z" />
<glyph unicode="&#xe1;" horiz-adv-x="1063" d="M66 284q0 105 46.5 169t125 97t149.5 44t189.5 24.5t151.5 25.5q71 24 71 137t-74.5 160.5t-201 47.5t-203.5 -62.5t-80 -185.5h-129q9 180 123.5 268.5t304.5 88.5q389 0 389 -342v-568q0 -77 76 -77q20 0 40 8v-111q-37 -8 -83 -8q-92 0 -122 45.5t-30 140.5h-4 q-75 -115 -159 -166t-205 -51t-201 34t-127 105t-47 176zM195 289q0 -60 33 -109q67 -102 202 -102q98 0 183 40.5t135.5 117t50.5 178.5v170h-4q-16 -31 -118.5 -48t-222.5 -38t-189.5 -67t-69.5 -142zM410 1217l215 290h159l-270 -290h-104z" />
<glyph unicode="&#xe2;" horiz-adv-x="1063" d="M66 284q0 105 46.5 169t125 97t149.5 44t189.5 24.5t151.5 25.5q71 24 71 137t-74.5 160.5t-201 47.5t-203.5 -62.5t-80 -185.5h-129q9 180 123.5 268.5t304.5 88.5q389 0 389 -342v-568q0 -77 76 -77q20 0 40 8v-111q-37 -8 -83 -8q-92 0 -122 45.5t-30 140.5h-4 q-75 -115 -159 -166t-205 -51t-201 34t-127 105t-47 176zM195 289q0 -60 33 -109q67 -102 202 -102q98 0 183 40.5t135.5 117t50.5 178.5v170h-4q-16 -31 -118.5 -48t-222.5 -38t-189.5 -67t-69.5 -142zM227 1217l234 290h141l234 -290h-134l-176 210l-180 -210h-119z" />
<glyph unicode="&#xe3;" horiz-adv-x="1063" d="M66 284q0 105 46.5 169t125 97t149.5 44t189.5 24.5t151.5 25.5q71 24 71 137t-74.5 160.5t-201 47.5t-203.5 -62.5t-80 -185.5h-129q9 180 123.5 268.5t304.5 88.5q389 0 389 -342v-568q0 -77 76 -77q20 0 40 8v-111q-37 -8 -83 -8q-92 0 -122 45.5t-30 140.5h-4 q-75 -115 -159 -166t-205 -51t-201 34t-127 105t-47 176zM195 289q0 -60 33 -109q67 -102 202 -102q98 0 183 40.5t135.5 117t50.5 178.5v170h-4q-16 -31 -118.5 -48t-222.5 -38t-189.5 -67t-69.5 -142zM209 1257q10 79 58.5 139t118.5 60q69 0 190 -59q63 -31 92 -31 q76 0 106 98h78q-12 -79 -58.5 -137.5t-113.5 -58.5q-81 0 -208 70q-49 26 -85 26t-67 -28.5t-31 -78.5h-80z" />
<glyph unicode="&#xe4;" horiz-adv-x="1063" d="M66 284q0 105 46.5 169t125 97t149.5 44t189.5 24.5t151.5 25.5q71 24 71 137t-74.5 160.5t-201 47.5t-203.5 -62.5t-80 -185.5h-129q9 180 123.5 268.5t304.5 88.5q389 0 389 -342v-568q0 -77 76 -77q20 0 40 8v-111q-37 -8 -83 -8q-92 0 -122 45.5t-30 140.5h-4 q-75 -115 -159 -166t-205 -51t-201 34t-127 105t-47 176zM195 289q0 -60 33 -109q67 -102 202 -102q98 0 183 40.5t135.5 117t50.5 178.5v170h-4q-16 -31 -118.5 -48t-222.5 -38t-189.5 -67t-69.5 -142zM281 1251v209h139v-209h-139zM643 1251v209h139v-209h-139z" />
<glyph unicode="&#xe5;" horiz-adv-x="1063" d="M66 284q0 105 46.5 169t125 97t149.5 44t189.5 24.5t151.5 25.5q71 24 71 137t-74.5 160.5t-201 47.5t-203.5 -62.5t-80 -185.5h-129q9 180 123.5 268.5t304.5 88.5q389 0 389 -342v-568q0 -77 76 -77q20 0 40 8v-111q-37 -8 -83 -8q-92 0 -122 45.5t-30 140.5h-4 q-75 -115 -159 -166t-205 -51t-201 34t-127 105t-47 176zM195 289q0 -60 33 -109q67 -102 202 -102q98 0 183 40.5t135.5 117t50.5 178.5v170h-4q-16 -31 -118.5 -48t-222.5 -38t-189.5 -67t-69.5 -142zM313 1400.5q0 59.5 29.5 110.5t80.5 81t103.5 30t92.5 -17.5t69 -47.5 q64 -66 64 -141t-29.5 -126.5t-80.5 -81.5t-109.5 -30t-109 30t-80.5 81.5t-30 111zM393 1401q0 -58 40.5 -99.5t99 -41.5t99 40.5t40.5 100.5t-40.5 99.5t-99 39.5t-99 -40.5t-40.5 -98.5z" />
<glyph unicode="&#xe6;" horiz-adv-x="1782" d="M66 284q0 105 46.5 169t125 97t149.5 44t189.5 24.5t151.5 25.5q71 24 71 137t-74.5 160.5t-201 47.5t-203.5 -62.5t-80 -185.5h-129q9 180 123.5 268.5t304.5 88.5q132 0 234 -49.5t118 -171.5h4q42 107 145.5 164t227.5 57t214 -48.5t141 -129.5q99 -159 99 -422h-794 q0 -265 153 -368q77 -52 198 -52t199.5 70t106.5 198h129q-56 -241 -245 -332q-94 -45 -216 -45q-291 0 -387 269h-4q-14 -84 -82.5 -145t-166 -92.5t-195.5 -31.5t-178 34t-127 105t-47 176zM195 289q0 -60 33 -109q67 -102 202 -102q98 0 183 40.5t135.5 117t50.5 178.5 v170h-4q-16 -31 -118.5 -48t-222.5 -38t-189.5 -67t-69.5 -142zM928 608h665q0 99 -41 186.5t-117 141t-175 53.5q-155 0 -243.5 -110.5t-88.5 -270.5z" />
<glyph unicode="&#xe7;" horiz-adv-x="1063" d="M70 514.5q0 136.5 32.5 238.5t96.5 179q137 166 370 166q242 0 357 -165q58 -83 71 -200h-129q-26 122 -101 189t-181 67t-177 -38t-117 -101q-93 -131 -93 -315q0 -117 42 -222.5t126.5 -170t203 -64.5t206.5 86t100 219h129q-24 -190 -144 -303q-116 -111 -283 -111 t-280 76t-171 204.5t-58 265zM330 -383l28 66q68 -29 138 -29q133 0 133 90q0 36 -25 57t-80 21t-88 -17l-33 31l125 164h72l-90 -121q30 6 83.5 6t104 -31t50.5 -97t-34 -106q-64 -77 -180.5 -77t-203.5 43z" />
<glyph unicode="&#xe8;" horiz-adv-x="1063" d="M70 535q0 233 115 391q126 172 362 172q232 0 354 -177q111 -162 111 -423h-813q2 -164 89.5 -292t258.5 -128q135 0 218 73.5t114 200.5h129q-91 -383 -461 -383q-238 0 -363 166q-114 153 -114 400zM199 608h684q-3 98 -44 186.5t-116 141.5t-175.5 53t-176.5 -53 q-147 -103 -172 -328zM279 1507h159l215 -290h-104z" />
<glyph unicode="&#xe9;" horiz-adv-x="1063" d="M70 535q0 233 115 391q126 172 362 172q232 0 354 -177q111 -162 111 -423h-813q2 -164 89.5 -292t258.5 -128q135 0 218 73.5t114 200.5h129q-91 -383 -461 -383q-238 0 -363 166q-114 153 -114 400zM199 608h684q-3 98 -44 186.5t-116 141.5t-175.5 53t-176.5 -53 q-147 -103 -172 -328zM410 1217l215 290h159l-270 -290h-104z" />
<glyph unicode="&#xea;" horiz-adv-x="1063" d="M70 535q0 233 115 391q126 172 362 172q232 0 354 -177q111 -162 111 -423h-813q2 -164 89.5 -292t258.5 -128q135 0 218 73.5t114 200.5h129q-91 -383 -461 -383q-238 0 -363 166q-114 153 -114 400zM199 608h684q-3 98 -44 186.5t-116 141.5t-175.5 53t-176.5 -53 q-147 -103 -172 -328zM227 1217l234 290h141l234 -290h-134l-176 210l-180 -210h-119z" />
<glyph unicode="&#xeb;" horiz-adv-x="1063" d="M70 535q0 233 115 391q126 172 362 172q232 0 354 -177q111 -162 111 -423h-813q2 -164 89.5 -292t258.5 -128q135 0 218 73.5t114 200.5h129q-91 -383 -461 -383q-238 0 -363 166q-114 153 -114 400zM199 608h684q-3 98 -44 186.5t-116 141.5t-175.5 53t-176.5 -53 q-147 -103 -172 -328zM281 1251v209h139v-209h-139zM643 1251v209h139v-209h-139z" />
<glyph unicode="&#xec;" horiz-adv-x="379" d="M-63 1507h159l215 -290h-104zM125 0v1067h129v-1067h-129z" />
<glyph unicode="&#xed;" horiz-adv-x="379" d="M68 1217l215 290h159l-270 -290h-104zM125 0v1067h129v-1067h-129z" />
<glyph unicode="&#xee;" horiz-adv-x="379" d="M-115 1217l234 290h141l234 -290h-134l-176 210l-180 -210h-119zM125 0v1067h129v-1067h-129z" />
<glyph unicode="&#xef;" horiz-adv-x="379" d="M-61 1251v209h139v-209h-139zM125 0v1067h129v-1067h-129zM301 1251v209h139v-209h-139z" />
<glyph unicode="&#xf0;" d="M70 514q0 227 128 378q131 155 343 155t286 -82h4q-94 179 -272 323l-215 -121l-68 66l205 117q-103 69 -190 112l74 72q126 -65 213 -131l233 131l68 -66l-224 -127q402 -328 402 -806q0 -247 -128 -406.5t-374 -159.5q-160 0 -269 71q-216 141 -216 474zM199 512 q0 -185 89 -304q95 -130 273 -130t273 122q94 119 94 318q0 245 -158 360q-82 60 -205.5 60t-206.5 -56q-159 -109 -159 -370z" />
<glyph unicode="&#xf1;" horiz-adv-x="1100" d="M121 0v1067h129v-184h4q48 130 193 188q68 27 145 27q276 0 351 -188q36 -90 36 -224v-686h-129v666q0 152 -60 237.5t-208 85.5q-100 0 -174.5 -47t-115.5 -131.5t-42 -187.5v-623h-129zM227 1257q14 116 93 171q39 28 97 28q56 0 177 -59q63 -31 92 -31q76 0 107 98h77 q-18 -114 -88 -168q-38 -28 -94 -28q-70 0 -198 70q-48 26 -84.5 26t-67.5 -28.5t-31 -78.5h-80z" />
<glyph unicode="&#xf2;" d="M70 514.5q0 136.5 32.5 238.5t96.5 179.5t158 121.5t212.5 44t213.5 -44.5t157 -121.5q129 -157 129 -397q0 -157 -58 -285.5t-171 -204.5t-270.5 -76t-270.5 76t-171 204.5t-58 265zM199 535q0 -117 42 -222.5t126.5 -170t202 -64.5t202 64.5t126.5 170t42 207 t-24.5 184.5t-69.5 145.5t-116 101t-160.5 38.5t-160.5 -38t-117 -101q-93 -131 -93 -315zM317 1507h160l215 -290h-104z" />
<glyph unicode="&#xf3;" d="M70 514.5q0 136.5 32.5 238.5t96.5 179.5t158 121.5t212.5 44t213.5 -44.5t157 -121.5q129 -157 129 -397q0 -157 -58 -285.5t-171 -204.5t-270.5 -76t-270.5 76t-171 204.5t-58 265zM199 535q0 -117 42 -222.5t126.5 -170t202 -64.5t202 64.5t126.5 170t42 207 t-24.5 184.5t-69.5 145.5t-116 101t-160.5 38.5t-160.5 -38t-117 -101q-93 -131 -93 -315zM449 1217l215 290h159l-270 -290h-104z" />
<glyph unicode="&#xf4;" d="M70 514.5q0 136.5 32.5 238.5t96.5 179.5t158 121.5t212.5 44t213.5 -44.5t157 -121.5q129 -157 129 -397q0 -157 -58 -285.5t-171 -204.5t-270.5 -76t-270.5 76t-171 204.5t-58 265zM199 535q0 -117 42 -222.5t126.5 -170t202 -64.5t202 64.5t126.5 170t42 207 t-24.5 184.5t-69.5 145.5t-116 101t-160.5 38.5t-160.5 -38t-117 -101q-93 -131 -93 -315zM266 1217l234 290h141l233 -290h-133l-176 210l-180 -210h-119z" />
<glyph unicode="&#xf5;" d="M70 514.5q0 136.5 32.5 238.5t96.5 179.5t158 121.5t212.5 44t213.5 -44.5t157 -121.5q129 -157 129 -397q0 -157 -58 -285.5t-171 -204.5t-270.5 -76t-270.5 76t-171 204.5t-58 265zM199 535q0 -117 42 -222.5t126.5 -170t202 -64.5t202 64.5t126.5 170t42 207 t-24.5 184.5t-69.5 145.5t-116 101t-160.5 38.5t-160.5 -38t-117 -101q-93 -131 -93 -315zM248 1257q10 79 58.5 139t119.5 60q68 0 188 -59q64 -31 93 -31q76 0 106 98h78q-12 -79 -58.5 -137.5t-114.5 -58.5q-80 0 -208 70q-48 26 -84 26t-67 -28.5t-31 -78.5h-80z" />
<glyph unicode="&#xf6;" d="M70 514.5q0 136.5 32.5 238.5t96.5 179.5t158 121.5t212.5 44t213.5 -44.5t157 -121.5q129 -157 129 -397q0 -157 -58 -285.5t-171 -204.5t-270.5 -76t-270.5 76t-171 204.5t-58 265zM199 535q0 -117 42 -222.5t126.5 -170t202 -64.5t202 64.5t126.5 170t42 207 t-24.5 184.5t-69.5 145.5t-116 101t-160.5 38.5t-160.5 -38t-117 -101q-93 -131 -93 -315zM319 1251v209h140v-209h-140zM682 1251v209h139v-209h-139z" />
<glyph unicode="&#xf7;" horiz-adv-x="1229" d="M100 465v110h1030v-110h-1030zM500 105.5q0 47.5 34 80.5t72 33t64 -16q59 -35 59 -89t-34 -90t-79.5 -36t-80.5 35t-35 82.5zM500 938q0 47 34 81t81 34t80.5 -34.5t33.5 -80t-35 -81.5t-79.5 -36t-79.5 35t-35 82z" />
<glyph unicode="&#xf8;" d="M59 18l125 140q-114 153 -114 377q0 241 129 397q137 166 361 166t358 -140l106 115l45 -41l-111 -123q111 -153 111 -374q0 -157 -58 -285.5t-171 -204.5t-271 -76q-216 0 -344 142l-121 -134zM199 546.5q0 -172.5 73 -292.5l559 610q-97 125 -262 125q-177 0 -277 -139 q-93 -131 -93 -303.5zM309 201q99 -123 260 -123q118 0 202.5 64.5t126.5 170t42 244.5t-72 254z" />
<glyph unicode="&#xf9;" horiz-adv-x="1100" d="M121 375v692h129v-694q5 -149 69.5 -222t212.5 -73q159 0 242 130q76 122 76 298v561h129v-1067h-119v193h-4q-50 -106 -147 -165t-217 -59q-371 0 -371 406zM297 1507h160l215 -290h-105z" />
<glyph unicode="&#xfa;" horiz-adv-x="1100" d="M121 375v692h129v-694q5 -149 69.5 -222t212.5 -73q159 0 242 130q76 122 76 298v561h129v-1067h-119v193h-4q-50 -106 -147 -165t-217 -59q-371 0 -371 406zM428 1217l215 290h160l-271 -290h-104z" />
<glyph unicode="&#xfb;" horiz-adv-x="1100" d="M121 375v692h129v-694q5 -149 69.5 -222t212.5 -73q159 0 242 130q76 122 76 298v561h129v-1067h-119v193h-4q-50 -106 -147 -165t-217 -59q-371 0 -371 406zM246 1217l233 290h142l233 -290h-133l-176 210l-180 -210h-119z" />
<glyph unicode="&#xfc;" horiz-adv-x="1100" d="M121 375v692h129v-694q5 -149 69.5 -222t212.5 -73q159 0 242 130q76 122 76 298v561h129v-1067h-119v193h-4q-50 -106 -147 -165t-217 -59q-371 0 -371 406zM299 1251v209h139v-209h-139zM662 1251v209h139v-209h-139z" />
<glyph unicode="&#xfd;" horiz-adv-x="948" d="M4 1067h137l348 -909l326 909h129l-459 -1231q-38 -94 -71 -142.5t-80 -68.5t-127.5 -18.5t-97.5 8.5v111q47 -11 94.5 -11t79.5 19t53 54t45 93l45 123zM352 1217l215 290h160l-270 -290h-105z" />
<glyph unicode="&#xfe;" horiz-adv-x="1176" d="M123 -395v1872h129v-613h4q41 113 142 173.5t222 60.5t211 -44.5t149 -121.5q118 -154 118 -397q0 -246 -118 -399q-129 -167 -357 -167q-124 0 -225.5 62t-141.5 172h-4v-598h-129zM252 534.5q0 -188.5 90.5 -322.5t280.5 -134q171 0 263 143q83 128 83 328 q0 103 -37 207t-115.5 168.5t-193.5 64.5q-190 0 -280.5 -133t-90.5 -321.5z" />
<glyph unicode="&#xff;" horiz-adv-x="948" d="M4 1067h137l348 -909l326 909h129l-459 -1231q-38 -94 -71 -142.5t-80 -68.5t-127.5 -18.5t-97.5 8.5v111q47 -11 94.5 -11t79.5 19t53 54t45 93l45 123zM223 1251v209h139v-209h-139zM586 1251v209h139v-209h-139z" />
<glyph unicode="&#x152;" horiz-adv-x="2200" d="M76 739q0 208 83.5 384t240 280t368.5 104q263 0 397 -151v121h971v-119h-831v-535h753v-121h-753v-581h837v-121h-977v145q-93 -113 -253 -156q-74 -20 -144 -20q-209 0 -367 104.5t-241.5 281t-83.5 384.5zM215 738.5q0 -176.5 65 -325.5t190.5 -237t297.5 -88 q116 0 202.5 38t157.5 126q33 41 37 115v686q0 96 -10 137q-23 60 -87 105.5t-146.5 69.5t-153.5 24q-172 0 -297.5 -88.5t-190.5 -237t-65 -325z" />
<glyph unicode="&#x153;" horiz-adv-x="1821" d="M74 533.5q0 153.5 52 282t158.5 205.5t252.5 77q303 0 385 -262h4q44 119 148 190.5t241 71.5q452 0 452 -600h-786q0 -172 84.5 -296t245.5 -124q250 0 325 266h129q-42 -178 -163.5 -276.5t-303.5 -98.5q-133 0 -238.5 71.5t-137.5 199.5h-4q-38 -134 -138 -202.5 t-250.5 -68.5t-254.5 76t-152.5 205.5t-48.5 283zM203 508q0 -252 147 -369q76 -61 191 -61q311 0 311 465q0 193 -68.5 319.5t-240.5 126.5q-127 0 -203 -70q-137 -127 -137 -411zM981 608h657q0 161 -87 271t-240 110q-104 0 -178.5 -51.5t-113 -138t-38.5 -191.5z" />
<glyph unicode="&#x178;" horiz-adv-x="1251" d="M-20 1477h165l482 -748l479 748h166l-578 -869v-608h-139v608zM375 1630v209h139v-209h-139zM737 1630v209h140v-209h-140z" />
<glyph unicode="&#x2c6;" horiz-adv-x="379" d="M-115 1217l234 290h141l234 -290h-134l-176 210l-180 -210h-119z" />
<glyph unicode="&#x2dc;" horiz-adv-x="379" d="M-133 1257q10 79 58.5 139t118.5 60q69 0 190 -59q63 -31 92 -31q76 0 106 98h78q-12 -79 -58.5 -137.5t-113.5 -58.5q-81 0 -208 70q-49 26 -85 26t-67 -28.5t-31 -78.5h-80z" />
<glyph unicode="&#x2000;" horiz-adv-x="1000" />
<glyph unicode="&#x2001;" horiz-adv-x="2001" />
<glyph unicode="&#x2002;" horiz-adv-x="1000" />
<glyph unicode="&#x2003;" horiz-adv-x="2001" />
<glyph unicode="&#x2004;" horiz-adv-x="667" />
<glyph unicode="&#x2005;" horiz-adv-x="500" />
<glyph unicode="&#x2006;" horiz-adv-x="333" />
<glyph unicode="&#x2007;" horiz-adv-x="333" />
<glyph unicode="&#x2008;" horiz-adv-x="250" />
<glyph unicode="&#x2009;" horiz-adv-x="400" />
<glyph unicode="&#x200a;" horiz-adv-x="111" />
<glyph unicode="&#x2010;" horiz-adv-x="758" d="M123 508v121h512v-121h-512z" />
<glyph unicode="&#x2011;" horiz-adv-x="758" d="M123 508v121h512v-121h-512z" />
<glyph unicode="&#x2012;" horiz-adv-x="758" d="M123 508v121h512v-121h-512z" />
<glyph unicode="&#x2013;" horiz-adv-x="1024" d="M0 508v121h1024v-121h-1024z" />
<glyph unicode="&#x2014;" horiz-adv-x="2048" d="M0 508v121h2048v-121h-2048z" />
<glyph unicode="&#x2018;" horiz-adv-x="569" d="M195 975v221q2 98 48.5 177.5t133.5 103.5v-88q-48 -16 -72 -75.5t-24 -119.5h86v-219h-172z" />
<glyph unicode="&#x2019;" horiz-adv-x="569" d="M193 975v88q62 21 85 117q11 42 11 77h-86v220h172v-222q-2 -98 -48.5 -176.5t-133.5 -103.5z" />
<glyph unicode="&#x201a;" horiz-adv-x="569" d="M193 -195q61 21 85 117q11 42 11 78h-86v219h172v-221q-2 -99 -48.5 -177.5t-133.5 -103.5v88z" />
<glyph unicode="&#x201c;" horiz-adv-x="758" d="M131 975v221q2 98 48.5 177.5t133.5 103.5v-88q-46 -16 -71 -75.5t-25 -119.5h86v-219h-172zM446 975v221q5 140 82 222q41 42 101 59v-88q-47 -16 -72 -75.5t-25 -119.5h86v-219h-172z" />
<glyph unicode="&#x201d;" horiz-adv-x="758" d="M129 975v88q63 21 86 117q10 42 10 77h-86v220h172v-222q-2 -98 -47.5 -176.5t-134.5 -103.5zM444 975v88q47 16 72 75.5t25 118.5h-86v220h172v-222q-2 -98 -48.5 -176.5t-134.5 -103.5z" />
<glyph unicode="&#x201e;" horiz-adv-x="758" d="M129 -195q62 21 86 118q10 41 10 77h-86v219h172v-221q-2 -99 -47.5 -177.5t-134.5 -103.5v88zM444 -195q71 27 91 139q6 33 6 56h-86v219h172v-221q-2 -99 -48.5 -177.5t-134.5 -103.5v88z" />
<glyph unicode="&#x2022;" horiz-adv-x="1024" d="M147 739q0 99 48.5 184.5t133 134t171.5 48.5t155.5 -29t118.5 -79q105 -107 105 -259q0 -100 -49.5 -185.5t-133 -135t-184 -49.5t-184 49.5t-132.5 135.5t-49 185z" />
<glyph unicode="&#x2026;" horiz-adv-x="2048" d="M256 0v219h172v-219h-172zM938 0v219h172v-219h-172zM1620 0v219h172v-219h-172z" />
<glyph unicode="&#x202f;" horiz-adv-x="400" />
<glyph unicode="&#x2039;" horiz-adv-x="530" d="M109 504v129l272 258v-137l-193 -185l193 -184v-139z" />
<glyph unicode="&#x203a;" horiz-adv-x="530" d="M150 246v139l192 184l-192 185v137l272 -258v-129z" />
<glyph unicode="&#x205f;" horiz-adv-x="500" />
<glyph unicode="&#x2122;" horiz-adv-x="2028" d="M168 1384v93h657v-93h-274v-759h-109v759h-274zM975 625v852h174l272 -691l265 691h174v-852h-109v753h-4l-299 -753h-62l-299 753h-4v-753h-108z" />
<glyph unicode="&#xe000;" horiz-adv-x="1065" d="M0 0v1065h1065v-1065h-1065z" />
</font>
</defs>
</svg>
