<?xml version="1.0" standalone="no"?>
<!DOCTYPE svg PUBLIC "-//W3C//DTD SVG 1.1//EN" "http://www.w3.org/Graphics/SVG/1.1/DTD/svg11.dtd" >
<svg xmlns="http://www.w3.org/2000/svg">
<metadata></metadata>
<defs>
<font id="ContextRepriseMediumSSiMedium" horiz-adv-x="1139" >
<font-face units-per-em="2048" ascent="1638" descent="-410" />
<missing-glyph horiz-adv-x="569" />
<glyph horiz-adv-x="0" />
<glyph horiz-adv-x="0" />
<glyph unicode="&#xd;" horiz-adv-x="0" />
<glyph unicode=" "  horiz-adv-x="569" />
<glyph unicode="&#x09;" horiz-adv-x="569" />
<glyph unicode="&#xa0;" horiz-adv-x="569" />
<glyph unicode="!" horiz-adv-x="569" d="M147 0v258h275v-258h-275zM158 1051v426h256v-426l-68 -639h-121z" />
<glyph unicode="&#x22;" horiz-adv-x="909" d="M170 893v584h209v-584h-209zM530 893v584h209v-584h-209z" />
<glyph unicode="#" d="M70 434v156h215l37 268h-193v156h213l59 434h166l-61 -434h227l60 434h165l-61 -434h176v-156h-196l-37 -268h174v-156h-195l-61 -434h-164l59 434h-225l-61 -434h-164l59 434h-192zM449 590h227l37 268h-228z" />
<glyph unicode="$" d="M35 449h233q0 -289 262 -297v499q-108 32 -180.5 61t-139.5 80q-144 111 -144 314q0 128 63.5 219t170.5 138.5t230 47.5v162h88v-162q271 0 390 -181q59 -90 59 -222h-233q-11 217 -216 217v-436q233 -62 359.5 -158.5t126.5 -300.5q0 -222 -140 -343 q-128 -112 -346 -122v-162h-88v162q-307 6 -433 225q-62 108 -62 259zM299 1131q0 -98 61 -143.5t170 -76.5v414q-114 0 -172.5 -48t-58.5 -146zM618 152q252 17 252 245q0 134 -120 191q-52 24 -132 45v-481z" />
<glyph unicode="%" horiz-adv-x="2048" d="M168 1065q0 250 150 357q78 55 192 55t192 -55q150 -107 150 -357q0 -254 -146 -357q-78 -55 -196 -55q-175 0 -258.5 115t-83.5 297zM352 1064.5q0 -276.5 156 -276.5q83 0 121.5 75.5t38.5 201.5q0 276 -158 276t-158 -276.5zM532 -49l797 1546h156l-793 -1546h-160z M1196 383q0 250 150 357q78 55 192 55t192 -55q150 -107 150 -357q0 -254 -146 -357q-78 -55 -196 -55q-175 0 -258.5 115t-83.5 297zM1380 382.5q0 -276.5 156 -276.5q83 0 121.5 75.5t38.5 201.5q0 276 -158 276t-158 -276.5z" />
<glyph unicode="&#x26;" horiz-adv-x="1327" d="M66 410q0 257 335 428q-74 98 -110.5 167.5t-36.5 163.5t47.5 174.5t129.5 124t181 43.5q152 0 258.5 -92t106.5 -260q0 -160 -131 -281q-59 -55 -133 -94l227 -278q35 102 45 199h205q-24 -221 -115 -361l281 -344h-287l-133 166q-158 -195 -410 -195 q-205 0 -332.5 117.5t-127.5 321.5zM299 423q0 -95 30 -151q61 -114 206 -114q138 0 211 84q29 32 65 82l-287 358q-4 -2 -62.5 -36t-89.5 -62q-73 -66 -73 -161zM463 1187.5q0 -58.5 19.5 -98.5t57.5 -89t56 -74q53 36 90 68q82 72 82 159.5t-41.5 134.5t-108 47 t-111 -44.5t-44.5 -103z" />
<glyph unicode="'" horiz-adv-x="569" d="M180 893v584h209v-584h-209z" />
<glyph unicode="(" horiz-adv-x="569" d="M100 559q0 495 295 952h191q-252 -452 -252 -963.5t252 -942.5h-191q-141 227 -196.5 392t-77 291t-21.5 271z" />
<glyph unicode=")" horiz-adv-x="569" d="M-16 -395q252 454 252 964.5t-252 941.5h190q91 -149 154 -289q141 -310 141 -665q0 -501 -295 -952h-190z" />
<glyph unicode="*" horiz-adv-x="758" d="M39 1184l45 133l225 -88v248h140v-248l223 88l49 -133l-234 -80l144 -195l-109 -80l-145 203l-139 -203l-115 80l143 195z" />
<glyph unicode="+" horiz-adv-x="1229" d="M98 418v211h412v418h209v-418h411v-211h-411v-418h-209v418h-412z" />
<glyph unicode="," horiz-adv-x="569" d="M141 0v279h285v-279q-1 -124 -77 -212.5t-199 -115.5v127q64 17 98.5 74t34.5 127h-142z" />
<glyph unicode="-" horiz-adv-x="797" d="M100 451v223h596v-223h-596z" />
<glyph unicode="." horiz-adv-x="569" d="M141 0v279h285v-279h-285z" />
<glyph unicode="/" horiz-adv-x="721" d="M-45 -35l588 1546h223l-588 -1546h-223z" />
<glyph unicode="0" d="M74 725q0 512 250 685q98 67 245.5 67t246.5 -68t152 -177q97 -197 97 -507q0 -517 -251 -687q-99 -67 -244 -67t-244 67t-154 177q-98 199 -98 510zM307 725q0 -253 60 -405t202 -152q262 0 262 556t-262 556t-262 -555z" />
<glyph unicode="1" d="M109 1022v186q160 0 276.5 58.5t140.5 181.5h191v-1448h-256v1022h-352z" />
<glyph unicode="2" d="M80 0q4 342 315 549q34 24 134.5 92t159.5 120q136 120 138 263q0 146 -95 216q-55 40 -146 40q-129 0 -185 -96t-61 -266h-234q0 162 57.5 289t169 198.5t271.5 71.5t263.5 -68.5t148.5 -170t45 -208t-43 -194.5t-111.5 -155.5t-130.5 -111t-147.5 -100.5t-134.5 -94 q-105 -78 -134 -164h699v-211h-979z" />
<glyph unicode="3" d="M63 475h234q0 -193 123 -269q62 -38 144.5 -38t144.5 30q133 64 133 217t-89 206t-235 53q-25 0 -51 -2v176q142 0 229.5 53.5t87.5 159.5t-62.5 162.5t-150 56.5t-141.5 -42q-106 -81 -106 -253h-234q6 141 64.5 253t164 175.5t234.5 63.5t232.5 -44.5t168 -132 t64.5 -204.5q0 -243 -203 -316v-4q163 -32 229 -194q31 -76 31 -173t-40 -178.5t-111 -140.5q-144 -119 -371 -119t-355.5 136t-134.5 368z" />
<glyph unicode="4" d="M49 344v234l615 870h221v-918h184v-186h-184v-344h-221v344h-615zM229 530h435v637h-5z" />
<glyph unicode="5" d="M72 412h233q11 -117 80.5 -180.5t174 -63.5t164.5 41q112 78 112 276q0 182 -121 262q-62 41 -152 41q-183 0 -231 -133h-234l154 793h741v-211h-567l-74 -369l4 -4q61 69 164 98q50 13 101 13q137 0 239.5 -62.5t155.5 -173t53 -226t-29 -206t-89 -167.5 q-132 -169 -378 -169q-140 0 -252 51t-178.5 150.5t-70.5 239.5z" />
<glyph unicode="6" d="M70 729q0 302 122 510q64 108 168.5 173t249.5 65q176 0 298 -110q126 -113 134 -286h-233q-8 90 -64 144.5t-159 54.5t-166 -77.5t-84.5 -178.5t-32.5 -240l4 -4q47 84 129 128t200 44t221.5 -63t157.5 -174.5t54 -250t-59.5 -251.5t-167.5 -177.5t-255.5 -64.5 t-250 56.5t-160.5 159.5q-106 186 -106 542zM326 469q0 -78 29.5 -147.5t88.5 -111.5t140 -42q119 0 185.5 88.5t66.5 212.5t-66 210.5t-187 86.5t-189 -85.5t-68 -211.5z" />
<glyph unicode="7" d="M72 1237v211h981v-197q-361 -414 -479 -886q-41 -167 -56 -365h-256q35 490 344 962q94 143 209 275h-743z" />
<glyph unicode="8" d="M63 402q0 114 32 186q66 149 231 192v2q-97 39 -150 117.5t-53 176t30.5 171.5t86.5 125q117 105 329 105t331 -105q116 -103 116 -291q0 -105 -53.5 -183t-149.5 -116v-2q122 -31 192 -124.5t70 -230.5t-65 -240.5t-180.5 -158.5t-260 -55t-260 54.5t-181 158.5 t-65.5 218zM297 423q0 -122 77 -193.5t195.5 -71.5t195.5 71.5t77 196.5q0 159 -132 224q-62 30 -161 30t-175.5 -67.5t-76.5 -189.5zM344 1069q0 -134 110 -187q52 -26 115 -26q137 0 197 100q29 49 29 116t-30 117t-82.5 75.5t-132.5 25.5t-143 -58.5t-63 -162.5z" />
<glyph unicode="9" d="M70 983q0 141 58.5 253.5t170 176.5t264.5 64q285 0 395.5 -200.5t110.5 -557.5q0 -301 -121 -508q-63 -109 -169 -174.5t-234.5 -65.5t-226 50.5t-157 140.5t-65.5 205h234q8 -90 64 -144.5t159 -54.5t165.5 77.5t84.5 178.5t33 240l-5 4q-45 -82 -127.5 -128t-182 -46 t-181.5 33.5t-144 100.5q-126 135 -126 355zM303 985q0 -179 112 -263q56 -42 138.5 -42t141.5 42q118 82 118 263q0 126 -65 207q-70 88 -193 88t-187.5 -84t-64.5 -211z" />
<glyph unicode=":" horiz-adv-x="569" d="M141 0v279h285v-279h-285zM141 768v279h285v-279h-285z" />
<glyph unicode=";" horiz-adv-x="569" d="M141 0v279h285v-279q-1 -124 -77 -212.5t-199 -115.5v127q64 17 98.5 74t34.5 127h-142zM141 768v279h285v-279h-285z" />
<glyph unicode="&#x3c;" horiz-adv-x="1229" d="M94 449v149l1041 465v-211l-766 -328l766 -329v-211z" />
<glyph unicode="=" horiz-adv-x="1229" d="M98 209v211h1032v-211h-1032zM98 627v211h1032v-211h-1032z" />
<glyph unicode="&#x3e;" horiz-adv-x="1229" d="M94 -16v211l766 329l-766 328v211l1041 -465v-149z" />
<glyph unicode="?" d="M100 1008q0 227 134 364q134 139 358 139q127 0 228 -49t159.5 -143.5t58.5 -204.5t-24.5 -173t-58 -99.5t-97.5 -90.5t-100 -93q-80 -88 -80 -257h-221q0 219 67 319q35 52 109.5 115t111.5 111.5t37 132t-32.5 135.5t-80 76.5t-87.5 24.5q-123 0 -185.5 -81.5 t-62.5 -225.5h-234zM426 0v258h274v-258h-274z" />
<glyph unicode="@" horiz-adv-x="1638" d="M100 766q0 205 102 376t275 270t375 99q282 0 482 -169q96 -82 150 -194t54 -243q0 -191 -81 -331.5t-195.5 -212.5t-206.5 -72q-50 0 -84 32t-37 89h-4q-108 -119 -230 -119q-82 0 -151.5 44t-108.5 118.5t-39 169t33 190.5t94 174q130 166 322 166q156 0 229 -149 l37 116h144l-148 -542q-18 -56 -18 -100t39 -44q64 0 126 60t101 163t39 239t-73 248.5t-199 173t-265 60.5t-246.5 -47.5t-186.5 -132.5q-165 -178 -165 -440q0 -300 174 -481q171 -179 432 -179q179 0 331 94q73 46 130 111h144q-133 -216 -373 -298q-116 -40 -256 -40 t-279.5 58.5t-244.5 166.5q-222 225 -222 576zM575 633.5q0 -82.5 44.5 -135t120.5 -52.5t140.5 58.5t102 145t37.5 163t-47.5 130.5t-121.5 54t-139 -56t-101 -140.5t-36 -167z" />
<glyph unicode="A" horiz-adv-x="1366" d="M-14 0l561 1477h272l563 -1477h-274l-137 391h-584l-137 -391h-264zM457 588h446l-219 635h-6z" />
<glyph unicode="B" horiz-adv-x="1442" d="M156 0v1477h710q203 0 318.5 -92.5t115.5 -274.5q0 -223 -208 -313v-4q178 -38 242 -203q32 -81 32 -178q0 -185 -134.5 -298.5t-404.5 -113.5h-671zM412 211h452q118 0 182 60t64 171.5t-64 170.5t-182 59h-452v-461zM412 858h417q130 0 187 94q28 47 28 111 q0 108 -52.5 155.5t-162.5 47.5h-417v-408z" />
<glyph unicode="C" horiz-adv-x="1479" d="M78 711q0 185 48.5 326.5t139 248t222.5 166.5q129 59 289 58h5q163 -1 298.5 -60.5t219.5 -173.5t99 -268h-256q-34 136 -123 214t-222.5 78t-218 -46t-137.5 -124q-108 -157 -108 -391q0 -151 47.5 -278.5t148 -206t229 -78.5t209.5 50q160 100 183 337h250 q-16 -268 -187 -433t-436 -165q-210 0 -370.5 103.5t-245 280.5t-84.5 362z" />
<glyph unicode="D" horiz-adv-x="1479" d="M156 0v1477h606q321 0 490 -212q155 -196 155 -526q0 -327 -155 -525q-79 -99 -203.5 -156.5t-286.5 -57.5h-606zM412 211h252q395 0 466 313q21 92 21 235.5t-40.5 258t-148.5 181.5t-298 67h-252v-1055z" />
<glyph unicode="E" horiz-adv-x="1290" d="M156 0v1477h1052v-224h-796v-387h737v-211h-737v-432h811v-223h-1067z" />
<glyph unicode="F" horiz-adv-x="1214" d="M156 0v1477h1009v-224h-753v-387h661v-211h-661v-655h-256z" />
<glyph unicode="G" horiz-adv-x="1554" d="M88 711q0 185 48.5 326.5t139 248t222 166t271 59.5t247 -32t192.5 -95q182 -137 207 -376h-250q-12 93 -65 159q-108 133 -312 133q-220 0 -336 -170q-108 -157 -108 -391q0 -151 47.5 -278.5t148 -206t248.5 -78.5q293 0 381 238q28 75 29 168h-389v196h623v-778h-164 l-39 174q-128 -149 -277 -189q-74 -20 -164 -20q-210 0 -370.5 103.5t-245 280.5t-84.5 362z" />
<glyph unicode="H" horiz-adv-x="1479" d="M150 0v1477h256v-588h665v588h256v-1477h-256v666h-665v-666h-256z" />
<glyph unicode="I" horiz-adv-x="569" d="M156 0v1477h256v-1477h-256z" />
<glyph unicode="J" horiz-adv-x="1100" d="M27 438v80h256v-78q0 -178 81 -234q44 -30 119 -30q118 0 161.5 68.5t43.5 216.5v1016h256v-1002q0 -148 -35.5 -259t-142.5 -181t-315 -70t-316 130t-108 343z" />
<glyph unicode="K" horiz-adv-x="1403" d="M156 0v1477h256v-672l651 672h315l-583 -590l624 -887h-319l-479 705l-209 -209v-496h-256z" />
<glyph unicode="L" horiz-adv-x="1176" d="M156 0v1477h256v-1254h743v-223h-999z" />
<glyph unicode="M" horiz-adv-x="1821" d="M152 0v1477h360l403 -1155h5l393 1155h356v-1477h-244v1141h-4l-405 -1141h-211l-406 1141h-4v-1141h-243z" />
<glyph unicode="N" horiz-adv-x="1479" d="M145 0v1477h271l667 -1088h4v1088h244v-1477h-270l-666 1085h-6v-1085h-244z" />
<glyph unicode="O" horiz-adv-x="1556" d="M78 711q0 185 48.5 326.5t139 248t222 166t291 59.5t291 -59.5t222.5 -165.5q187 -219 187 -547q0 -213 -84.5 -390t-245 -280.5t-371 -103.5t-371 103.5t-245 280.5t-84.5 362zM334 739q0 -151 47.5 -278.5t148 -206t230.5 -78.5t215.5 46.5t140.5 125.5 q107 155 107 391q0 235 -107 391q-117 170 -338 170q-114 0 -198.5 -46t-137.5 -124q-108 -157 -108 -391z" />
<glyph unicode="P" horiz-adv-x="1366" d="M156 0v1477h645q193 0 303 -71q194 -123 194 -386q0 -179 -109 -316t-388 -137h-389v-567h-256zM412 778h374q102 0 179 58.5t77 190t-68 185.5t-183 54h-379v-488z" />
<glyph unicode="Q" horiz-adv-x="1556" d="M78 711q0 185 48.5 326.5t139 248t222 166t291 59.5t291 -59.5t222.5 -165.5q187 -219 187 -547q0 -226 -91 -405q-47 -94 -116 -162l188 -166l-125 -141l-213 188q-156 -88 -355 -88t-359.5 103.5t-245 280.5t-84.5 362zM334 739q0 -151 47.5 -278.5t148 -206 t248.5 -78.5q93 0 164 35l-147 131l123 141l178 -155q127 153 127 411q0 235 -107 391q-117 170 -338 170q-220 0 -336 -170q-108 -157 -108 -391z" />
<glyph unicode="R" horiz-adv-x="1442" d="M156 0v1477h698q356 0 452 -230q31 -74 31 -185.5t-45 -191.5q-71 -124 -196 -165v-5q86 -12 151.5 -82.5t65.5 -228.5q0 -303 80 -389h-275q-26 43 -32.5 93t-6.5 142t-13 163t-44 118q-62 92 -234 92h-376v-608h-256zM412 805h419q122 0 186 60t64 182.5t-68 170.5 t-186 48h-415v-461z" />
<glyph unicode="S" horiz-adv-x="1327" d="M68 492h256q0 -162 102 -239t268 -77q208 0 278 112q32 51 32 111q0 136 -121 183q-60 23 -199.5 58.5t-237.5 61.5q-172 49 -247.5 148.5t-75.5 217t44.5 200t122.5 136.5q152 107 367 107q155 0 283 -54t203.5 -161t75.5 -256h-256q-17 260 -316 260q-106 0 -187 -45 t-81 -147q0 -140 174 -190q283 -73 420.5 -113t212 -146.5t74.5 -247t-81.5 -245t-213.5 -153t-287 -48.5q-266 0 -436 133t-174 394z" />
<glyph unicode="T" horiz-adv-x="1214" d="M16 1253v224h1184v-224h-465v-1253h-256v1253h-463z" />
<glyph unicode="U" horiz-adv-x="1479" d="M139 532v945h256v-861q0 -130 20 -218t95 -149t210 -61t208 37t105.5 98t41 130.5t8.5 162.5v861h256v-945q0 -278 -165 -425q-158 -142 -435 -142q-378 0 -526 255q-74 127 -74 312z" />
<glyph unicode="V" horiz-adv-x="1251" d="M-10 1477h266l367 -1170h4l374 1170h261l-500 -1477h-285z" />
<glyph unicode="W" horiz-adv-x="1933" d="M12 1477h260l265 -1129h4l295 1129h262l286 -1129h5l272 1129h260l-403 -1477h-261l-292 1128h-4l-299 -1128h-265z" />
<glyph unicode="X" horiz-adv-x="1327" d="M-6 0l518 766l-483 711h305l332 -521l346 521h286l-483 -711l518 -766h-311l-365 565l-370 -565h-293z" />
<glyph unicode="Y" horiz-adv-x="1327" d="M-12 1477h297l387 -662l381 662h286l-546 -897v-580h-256v580z" />
<glyph unicode="Z" horiz-adv-x="1290" d="M47 0v211l852 1042h-786v224h1112v-197l-852 -1057h872v-223h-1198z" />
<glyph unicode="[" horiz-adv-x="606" d="M147 -395v1906h457v-186h-235v-1534h235v-186h-457z" />
<glyph unicode="\" horiz-adv-x="721" d="M-45 1511h223l588 -1546h-223z" />
<glyph unicode="]" horiz-adv-x="606" d="M2 -209h236v1534h-236v186h457v-1906h-457v186z" />
<glyph unicode="^" horiz-adv-x="1229" d="M172 692l369 756h147l369 -756h-209l-234 512l-233 -512h-209z" />
<glyph unicode="_" horiz-adv-x="1024" d="M0 -156h1024v-102h-1024v102z" />
<glyph unicode="`" horiz-adv-x="494" d="M-59 1511h274l186 -294h-170z" />
<glyph unicode="a" d="M66 271q0 137 57 206.5t144 97.5t197 41.5t178 23.5t108.5 37.5t40.5 90.5q0 143 -220 143q-102 0 -164 -42t-69 -126h-234q12 190 147 272.5t335 82.5q250 0 364 -134q60 -70 60 -176v-550q0 -44 12 -62t44 -18t56 4v-164q-79 -27 -147 -27q-156 0 -180 129 q-64 -63 -165.5 -96t-201.5 -33q-151 0 -256.5 81.5t-105.5 218.5zM299 300.5q0 -77.5 68.5 -110t135.5 -32.5t128 21t103 67t42 114v177q-53 -37 -155 -49t-132 -17q-88 -14 -139 -53.5t-51 -117z" />
<glyph unicode="b" horiz-adv-x="1251" d="M129 0v1477h233v-545h5q48 76 136 121t179 45q240 0 368 -160t128 -408q0 -149 -50.5 -277t-154.5 -205t-252 -77q-280 0 -367 176h-4v-147h-221zM354 540q0 -171 79.5 -276.5t222.5 -105.5t215.5 109.5t72.5 266t-77 267t-218.5 110.5t-218 -100t-76.5 -271z" />
<glyph unicode="c" d="M72 505.5q0 140.5 33.5 245.5t98.5 183q140 164 390 164q124 0 229.5 -42.5t171.5 -130t76 -214.5h-233q-13 96 -78 148t-172.5 52t-195 -85t-87.5 -302q0 -148 70 -257t211 -109q101 0 168.5 65t83.5 178h233q-43 -279 -249 -380q-102 -50 -250 -50t-264.5 71.5 t-176 197t-59.5 266z" />
<glyph unicode="d" horiz-adv-x="1251" d="M72 531q0 152 37.5 257t102.5 174q127 136 318 136q109 0 206 -42t147 -124h4v545h233v-1477h-221v145h-4q-55 -115 -197 -155q-64 -19 -131 -19q-160 0 -272 74t-167.5 204t-55.5 282zM305 524q0 -149 75 -257.5t220 -108.5t220 112t75 248t-35 220q-74 173 -258 173 q-102 0 -170 -55q-127 -103 -127 -332z" />
<glyph unicode="e" d="M72 535q0 234 138 396q143 167 374 167q224 0 366 -162q137 -157 137 -383q0 -53 -4 -80h-778q0 -134 73.5 -224.5t211.5 -90.5q199 0 258 178h221q-25 -115 -95 -198q-139 -167 -384 -167q-242 0 -382 157q-136 154 -136 407zM305 629h545q-5 74 -38 139.5t-93 104 t-135 38.5q-119 0 -196.5 -80.5t-82.5 -201.5z" />
<glyph unicode="f" horiz-adv-x="645" d="M18 893v176h175v90q0 187 78.5 252.5t203 65.5t174.5 -15v-184q-46 12 -108 12q-115 0 -115 -110v-111h199v-176h-199v-893h-233v893h-175z" />
<glyph unicode="g" horiz-adv-x="1214" d="M72 563q0 224 128 375q133 160 351 160q104 0 187.5 -44.5t125.5 -131.5h4v147h234v-1014q0 -317 -238 -425q-117 -54 -257 -54t-244 32.5t-174 107.5t-80 194h233q21 -93 85.5 -125.5t168.5 -32.5q272 0 272 273v163h-4q-48 -88 -133 -138t-184 -50q-160 0 -267 74 q-208 144 -208 489zM305 544q0 -149 71.5 -253.5t211.5 -104.5t210 109.5t70 262.5t-71 253t-213.5 100t-210.5 -109t-68 -258z" />
<glyph unicode="h" horiz-adv-x="1176" d="M123 0v1477h233v-549h4q45 76 131 123t179.5 47t163.5 -23t119 -69q100 -94 100 -271v-735h-234v672q-3 126 -53 182.5t-158.5 56.5t-180 -79.5t-71.5 -200.5v-631h-233z" />
<glyph unicode="i" horiz-adv-x="494" d="M129 0v1069h233v-1069h-233zM129 1253v224h233v-224h-233z" />
<glyph unicode="j" horiz-adv-x="494" d="M-45 -229q70 -9 96 -9t46 16q32 27 32 142v1149h233v-1159q0 -165 -71 -249.5t-232 -84.5q-42 0 -104 8v187zM129 1253v224h233v-224h-233z" />
<glyph unicode="k" horiz-adv-x="1100" d="M129 0v1477h233v-840l422 432h287l-405 -393l444 -676h-285l-323 520l-140 -137v-383h-233z" />
<glyph unicode="l" horiz-adv-x="494" d="M129 0v1477h233v-1477h-233z" />
<glyph unicode="m" horiz-adv-x="1782" d="M123 0v1069h221v-149h6q58 88 133 133t185 45t191 -44.5t114 -133.5q126 178 332 178q173 0 263.5 -85t90.5 -274v-739h-234v625q0 153 -33.5 219.5t-158.5 66.5q-225 0 -225 -284v-627h-234v686q0 116 -41.5 170.5t-141 54.5t-167.5 -74.5t-68 -201.5v-635h-233z" />
<glyph unicode="n" horiz-adv-x="1176" d="M123 0v1069h221v-158l4 -4q71 121 199 168q63 23 140 23t147 -23t119 -69q100 -94 100 -271v-735h-234v672q-3 126 -53 182.5t-158.5 56.5t-180 -79.5t-71.5 -200.5v-631h-233z" />
<glyph unicode="o" horiz-adv-x="1214" d="M74 535.5q0 164.5 63 291.5t184 199t287 72t287.5 -72t184.5 -198t63 -292t-63 -293.5t-184.5 -199.5t-287.5 -72t-287 72t-184 200t-63 292.5zM307 536q0 -97 33 -184t100.5 -140.5t167.5 -53.5t167.5 53.5t100.5 140.5t33 184t-33 182.5t-100.5 139t-167.5 53.5 t-167.5 -53.5t-100.5 -139t-33 -182.5z" />
<glyph unicode="p" horiz-adv-x="1251" d="M129 -395v1464h221v-145h4q47 88 134 131t194 43q240 0 368 -160t128 -408q0 -149 -50.5 -277t-154.5 -205t-233 -77q-267 0 -373 168h-5v-534h-233zM354 540q0 -171 79.5 -276.5t222.5 -105.5t215.5 109.5t72.5 266t-77 267t-218.5 110.5t-218 -100t-76.5 -271z" />
<glyph unicode="q" horiz-adv-x="1251" d="M72 530q0 248 127.5 408t367.5 160q107 0 194 -43t134 -131h4v145h221v-1464h-233v534h-4q-70 -112 -216 -151q-67 -17 -139 -17q-148 0 -251.5 77t-154 205.5t-50.5 276.5zM305 533.5q0 -156.5 72.5 -266t220.5 -109.5t222.5 101t74.5 277t-76.5 275.5t-217 99.5 t-218.5 -110.5t-78 -267z" />
<glyph unicode="r" horiz-adv-x="721" d="M123 0v1069h219v-207h4q14 58 60.5 112.5t112.5 89t124 34.5t100 -6v-228q-80 10 -100 10q-82 0 -147 -43t-102.5 -126t-37.5 -197v-508h-233z" />
<glyph unicode="s" horiz-adv-x="1063" d="M66 344h233q17 -186 240 -186q89 0 162 29.5t73 109.5q-2 80 -108 119q-53 20 -196.5 50t-215.5 64q-166 76 -166 263q0 108 66 177q125 128 376 128q247 0 366 -140q63 -74 77 -188h-244q-25 141 -215 141q-72 0 -132 -23.5t-60 -74.5t28 -78t72 -43q52 -20 227 -58 t267 -105t92 -198.5t-70 -210.5q-132 -149 -403 -149q-288 0 -407 166q-61 84 -62 207z" />
<glyph unicode="t" horiz-adv-x="682" d="M16 893v176h177v322h233v-322h211v-176h-211v-569q0 -83 19.5 -115.5t89 -32.5t102.5 8v-182l-152 -12q-168 0 -232 66q-56 59 -60 206v631h-177z" />
<glyph unicode="u" horiz-adv-x="1176" d="M123 391v678h233v-655q0 -136 52 -196t151 -60q260 0 260 291v620h234v-1069h-230v150h-4q-56 -109 -184 -156q-60 -23 -140 -23t-155.5 27t-121.5 78q-95 105 -95 315z" />
<glyph unicode="v" horiz-adv-x="1063" d="M18 1069h254l269 -821h4l258 821h241l-378 -1069h-263z" />
<glyph unicode="w" horiz-adv-x="1593" d="M27 1069h247l207 -799h4l199 799h236l190 -799h4l215 799h238l-332 -1069h-240l-196 795h-4l-195 -795h-246z" />
<glyph unicode="x" horiz-adv-x="1100" d="M8 0l400 563l-367 506h283l221 -328l231 328h271l-361 -494l406 -575h-281l-268 395l-260 -395h-275z" />
<glyph unicode="y" horiz-adv-x="1063" d="M6 1069h256l277 -799h4l268 799h244l-412 -1126q-53 -136 -88.5 -203.5t-104 -115.5t-166 -48t-178.5 12v199q86 -14 111 -14q75 0 107.5 35t56.5 114l27 82z" />
<glyph unicode="z" horiz-adv-x="1024" d="M45 0v166l586 717h-545v186h860v-166l-606 -717h637v-186h-932z" />
<glyph unicode="{" horiz-adv-x="606" d="M-8 465v186q63 0 127.5 36.5t64.5 115.5v426q0 131 89.5 206.5t172.5 75.5h187v-186h-113q-69 0 -91.5 -41.5t-22.5 -101.5v-404q-1 -109 -69.5 -158.5t-143.5 -58.5v-4q210 -19 213 -229v-391q0 -62 23 -104t91 -42h113v-186h-187q-48 0 -111 32.5t-107 97t-44 152.5 v410q0 89 -64 128.5t-128 39.5z" />
<glyph unicode="|" horiz-adv-x="455" d="M123 -35v1546h209v-1546h-209z" />
<glyph unicode="}" horiz-adv-x="606" d="M-27 -209h113q70 0 92.5 41.5t22.5 104.5v403q1 107 69.5 157.5t143.5 59.5v4q-82 7 -147 54t-66 176v391q0 61 -22 102t-93 41h-113v186h187q48 0 111 -32.5t107 -96.5t44 -153v-410q0 -61 33.5 -99.5t79.5 -53.5t79 -15v-186q-61 0 -126.5 -36t-65.5 -114v-428 q0 -88 -44 -152.5t-106.5 -97t-111.5 -32.5h-187v186z" />
<glyph unicode="~" horiz-adv-x="1229" d="M141 522q92 176 256 176q83 0 228 -65q38 -17 77 -35q88 -39 137 -39t86.5 35t88.5 104l73 -172q-56 -82 -114.5 -130t-142.5 -48t-209 69.5t-234 69.5q-61 0 -99.5 -37.5t-72.5 -101.5z" />
<glyph horiz-adv-x="1802" d="M0 264q2 89 61 156t152 67q49 0 49 -49q0 -28 -48 -49.5t-71.5 -41.5t-23.5 -83t49 -98t123 -35q4 2 8 2q70 0 138.5 26t113.5 75t45 106.5t-30 114.5t-88 143.5t-88 150.5t-30 130q0 201 197 376q89 81 204 138t201.5 57t133.5 -37t47 -106q0 -22 -6 -43 q88 80 202.5 136t202 56t134 -37t46.5 -113q0 -141 -206 -307q-188 -141 -269 -141q-19 0 -38 14t-19 33l2 4q0 40 70 66q110 36 194 103q158 123 158 212q0 31 -19 48.5t-68.5 17.5t-134.5 -40t-154 -93.5t-127 -142t-58 -166t30.5 -141.5t90.5 -155.5t91 -151t31 -116.5 q0 -92 -64 -164.5t-162 -111.5t-187 -39q-191 0 -262 110q-61 -54 -149 -85t-179.5 -31t-160.5 33q-132 64 -132 202zM473 916q0 -70 20.5 -123t45 -94t76.5 -123t69 -119q61 37 96 37q62 0 62 -50q0 -19 -12.5 -29.5t-40 -21t-46.5 -21.5q-45 -28 -45 -114q6 -57 54 -89 t118 -32q4 2 9 2q70 0 138.5 26t113.5 75t45 106.5t-30 114.5t-88 143.5t-88 150.5t-30 131.5t23 133.5q-5 -4 -14 -14t-43.5 -37t-112 -72t-111.5 -45t-53 14t-19 33l2 4q0 40 70 66q108 35 207 110q145 121 145 205q0 31 -19 48.5t-67.5 17.5t-133 -39.5t-155.5 -94 t-128.5 -142.5t-57.5 -158zM1300 86q0 60 68 212t151 281.5t115 129.5q16 0 27.5 -10.5t11.5 -27t-55 -102.5q-142 -219 -209 -444q-14 -50 -24 -69t-34.5 -19t-37.5 15t-13 34zM1706 954q0 26 21 62t50.5 62t55.5 26q49 0 49 -49q0 -27 -21.5 -63.5t-51.5 -62.5t-56 -26 q-47 0 -47 51z" />
<glyph unicode="&#xa1;" horiz-adv-x="569" d="M147 840v258h275v-258h-275zM158 43l67 643h121l68 -643v-422h-256v422z" />
<glyph unicode="&#xa2;" d="M76 532.5q0 160.5 60.5 292t168 202.5t244.5 71v186h88v-186q176 0 298 -103q126 -106 138 -284h-233q-11 89 -66 144.5t-137 55.5v-753q185 30 211 243h233q-52 -277 -229 -377q-93 -53 -215 -53v-186h-88v186q-143 0 -251.5 74.5t-165 200.5t-56.5 286.5zM309 524 q0 -139 59.5 -243.5t180.5 -122.5v753q-180 -17 -227 -253q-13 -68 -13 -134z" />
<glyph unicode="&#xa3;" d="M63 659v136h130q-44 54 -70.5 135t-26.5 155q0 124 68.5 222t179.5 151t249.5 53t254.5 -57q240 -118 242 -453h-234q-7 147 -71.5 230.5t-204.5 83.5q-137 0 -198 -111q-30 -55 -30 -145.5t94 -263.5h302v-136h-252q32 -61 32 -151q0 -172 -206 -326l4 -4 q69 29 105.5 42t92.5 13t156 -34q88 -37 151 -37q110 0 199 78l105 -160q-75 -64 -150.5 -89.5t-143 -25.5t-100 5.5t-62 11.5t-75.5 14q-137 41 -202 41q-136 0 -220 -70l-108 168q84 57 152.5 151t68.5 189.5t-43 183.5h-189z" />
<glyph unicode="&#xa4;" d="M41 301l117 127q-103 115 -103 303t103 289l-117 127l117 117l116 -115q68 57 186 82q55 12 112 12t110 -12q112 -25 172 -80l119 117l125 -125l-115 -121q46 -49 71 -129.5t25 -165.5t-26 -166.5t-72 -136.5l113 -123l-113 -113l-117 119q-104 -102 -293.5 -102 t-300.5 100l-114 -119zM276 721q0 -84 39.5 -153.5t107 -110.5t148 -41t147 42.5t103.5 113.5t37 153t-37 152.5t-103 112.5t-136.5 42t-124 -23t-95.5 -69q-86 -91 -86 -219z" />
<glyph unicode="&#xa5;" d="M-10 1477h260l319 -662l326 662h254l-385 -725h203v-136h-281v-141h281v-133h-281v-342h-233v342h-281v133h281v141h-281v136h201z" />
<glyph unicode="&#xa6;" horiz-adv-x="455" d="M123 -35v604h209v-604h-209zM123 907v604h209v-604h-209z" />
<glyph unicode="&#xa7;" d="M45 645q0 212 221 309q-88 92 -88 203t58 190.5t151.5 121.5t194.5 42q180 0 295 -104.5t116 -286.5h-221q-3 89 -55 147t-137 58q-94 0 -144 -73q-24 -36 -24 -80.5t26.5 -82.5t73.5 -73q55 -39 201 -113.5t217 -124.5q166 -119 166 -286q0 -97 -62.5 -181t-154.5 -116 q112 -93 112 -262.5t-117.5 -263t-287.5 -93.5q-188 0 -310 108q-125 112 -133 316h222q17 -238 215 -238q82 0 130 41t48 111t-28.5 114t-74.5 78q-58 43 -240 137t-276 183t-94 219zM266 672q0 -96 113 -162l373 -211q122 57 122 170q0 49 -31.5 89t-111.5 83l-340 197 q-55 -15 -90 -61t-35 -105z" />
<glyph unicode="&#xa8;" horiz-adv-x="494" d="M-45 1239v223h233v-223h-233zM307 1239v223h234v-223h-234z" />
<glyph unicode="&#xa9;" horiz-adv-x="1638" d="M68 743.5q0 220.5 102 397.5t275.5 273.5t350 96.5t313.5 -55.5t241 -158t162.5 -245.5t58.5 -312.5t-58.5 -313.5t-162.5 -246.5t-241 -158.5t-288 -56q-215 0 -388 101t-269 279t-96 398.5zM231 765.5q0 -158.5 41 -274.5t119 -205q163 -188 430 -188q120 0 229 47 t190 133q167 180 167 461q0 278 -167 459q-168 180 -419 180q-164 0 -299.5 -82t-213 -227t-77.5 -303.5zM412 739q0 193 114 315q121 130 316 130q198 0 300 -143q50 -70 64 -171h-139q-15 80 -77 129.5t-147 49.5t-145 -41q-123 -84 -123 -269q0 -89 33 -165.5t95 -122 t147 -45.5t145.5 51.5t71.5 132.5h141q-25 -146 -125.5 -233t-236.5 -87q-194 0 -314 133t-120 336z" />
<glyph unicode="&#xaa;" horiz-adv-x="778" d="M33 957q0 113 71.5 152t178 57t137.5 24q80 17 80 59q0 59 -34 75.5t-94.5 16.5t-96.5 -18.5t-42 -67.5h-174q25 222 328 222q168 0 249 -85q42 -44 42 -108v-311q0 -24 7 -35.5t26.5 -11.5t33.5 2v-140q-44 -16 -96 -16q-110 0 -127 100q-27 -41 -100 -70.5t-140 -29.5 t-124 22q-125 50 -125 163zM211 975q0 -40 30 -55t85 -15q174 0 174 111v90q-31 -16 -160 -36.5t-129 -94.5z" />
<glyph unicode="&#xab;" horiz-adv-x="948" d="M102 446v232l318 256v-215l-195 -156l195 -157v-213zM508 446v232l317 256v-215l-194 -156l194 -157v-213z" />
<glyph unicode="&#xac;" horiz-adv-x="1229" d="M98 627v211h1032v-615h-208v404h-824z" />
<glyph unicode="&#xad;" horiz-adv-x="797" d="M100 451v223h596v-223h-596z" />
<glyph unicode="&#xae;" horiz-adv-x="1638" d="M68 743.5q0 220.5 102 397.5t275.5 273.5t350 96.5t313.5 -55.5t241 -158t162.5 -245.5t58.5 -312.5t-58.5 -313.5t-162.5 -246.5t-241 -158.5t-288 -56q-215 0 -388 101t-269 279t-96 398.5zM231 765.5q0 -158.5 41 -274.5t119 -205q163 -188 430 -188q120 0 229 47 t190 133q167 180 167 461q0 278 -167 459q-168 180 -419 180q-164 0 -299.5 -82t-213 -227t-77.5 -303.5zM530 295v858h322q158 0 233.5 -59.5t75.5 -178.5q0 -219 -221 -243l238 -377h-158l-219 367h-131v-367h-140zM670 782h155q96 0 146.5 25t50.5 102t-51.5 100 t-132.5 23h-168v-250z" />
<glyph unicode="&#xaf;" horiz-adv-x="494" d="M-47 1280v135h590v-135h-590z" />
<glyph unicode="&#xb0;" horiz-adv-x="819" d="M102 1155q0 73 23.5 129.5t66.5 101.5q90 91 218 91q129 0 218 -91t89 -219q0 -129 -89 -219q-89 -92 -218 -92q-83 0 -154.5 42t-112.5 113t-41 144zM217 1179.5q0 -66.5 25.5 -110t69.5 -70t110.5 -26.5t123 56.5t56.5 137t-56.5 138t-136 57.5t-136 -58t-56.5 -124.5z " />
<glyph unicode="&#xb1;" horiz-adv-x="1229" d="M98 0v211h1032v-211h-1032zM98 578v210h412v259h209v-259h411v-210h-411v-259h-209v259h-412z" />
<glyph unicode="&#xb2;" horiz-adv-x="737" d="M43 565q2 226 205 353q63 41 132.5 86t109 92t40 109.5t-42 94t-106.5 31.5q-140 0 -150 -190h-178q0 158 91 247t238.5 89t237 -66.5t89.5 -202.5q0 -92 -56.5 -160.5t-132.5 -118t-132 -83.5q-114 -72 -136 -137h436v-144h-645z" />
<glyph unicode="&#xb3;" horiz-adv-x="737" d="M33 866h164q0 -77 45 -126.5t122.5 -49.5t128 40.5t50.5 119t-64.5 106t-179.5 27.5v119q89 0 148 29.5t59 89.5t-43 85t-104.5 25t-102.5 -43.5t-41 -111.5h-164q8 193 152 266q69 35 156.5 35t156.5 -24.5t111.5 -78t42.5 -137.5q0 -142 -131 -186v-4q78 -13 123 -72.5 t45 -146t-45 -151.5q-92 -130 -293 -130q-164 0 -248.5 82.5t-87.5 236.5z" />
<glyph unicode="&#xb4;" horiz-adv-x="494" d="M92 1217l184 294h277l-291 -294h-170z" />
<glyph unicode="&#xb5;" horiz-adv-x="1176" d="M123 -395v1464h233v-655q0 -136 52 -196t151 -60q260 0 260 291v620h234v-1069h-230v150h-4q-41 -79 -123.5 -129t-154.5 -50q-122 0 -185 74v-440h-233z" />
<glyph unicode="&#xb6;" horiz-adv-x="1229" d="M63 1100.5q0 122.5 59 209.5q113 167 419 167h530v-1809h-164v1673h-239v-1673h-164v1043q-129 0 -230 48.5t-156 133.5t-55 207.5z" />
<glyph unicode="&#xb8;" horiz-adv-x="494" d="M18 -414l37 82q99 -33 133 -33q125 0 125 86q0 37 -28 57.5t-69 20.5t-77 -20l-45 39l135 182h99l-92 -121v-4q16 6 63.5 6t86.5 -17q91 -38 91 -135t-72 -141.5t-151 -44.5q-158 0 -236 43z" />
<glyph unicode="&#xb9;" horiz-adv-x="737" d="M74 1194v119q152 0 230 64q41 33 52 81h144v-893h-178v629h-248z" />
<glyph unicode="&#xba;" horiz-adv-x="778" d="M31 1122q0 222 166 310q83 45 198.5 45t198 -44t124.5 -124.5t42 -186t-42 -184.5q-87 -166 -323 -166q-175 0 -271 98q-93 93 -93 252zM209 1122q0 -84 49 -150.5t123 -66.5t115 31q79 59 86 186q0 87 -49.5 153t-123 66t-115.5 -31q-85 -63 -85 -188z" />
<glyph unicode="&#xbb;" horiz-adv-x="948" d="M123 193v213l194 157l-194 156v215l317 -256v-232zM528 193v213l195 157l-195 156v215l318 -256v-232z" />
<glyph unicode="&#xbc;" horiz-adv-x="1708" d="M76 1194v119q152 0 230 64q41 33 52 81h144v-893h-178v629h-248zM289 -49l858 1546h160l-856 -1546h-162zM895 201v168l379 516h199v-529h96v-155h-96v-201h-179v201h-399zM1051 356h243v326h-4z" />
<glyph unicode="&#xbd;" horiz-adv-x="1708" d="M74 1194v119q152 0 230 64q41 33 52 81h144v-893h-178v629h-248zM281 -49l858 1546h159l-856 -1546h-161zM969 0q0 138 63.5 222t179.5 159q142 87 173 112q71 59 71 135.5t-41.5 113t-107.5 36.5q-142 0 -150 -203h-178q0 161 88 254t248 93q194 0 277 -126 q42 -63 42 -156t-55 -159t-129 -113t-112.5 -70.5t-70.5 -47.5q-72 -52 -89 -105h436v-145h-645z" />
<glyph unicode="&#xbe;" horiz-adv-x="1708" d="M33 866h164q0 -77 45 -126.5t122.5 -49.5t128 40.5t50.5 118t-64.5 105t-179.5 27.5v119q207 0 207 129q0 52 -43 77t-104.5 25t-102.5 -43.5t-41 -111.5h-164q8 193 152 266q69 35 156.5 35t156.5 -24.5t111.5 -78t42.5 -137.5q0 -142 -131 -186v-4q78 -13 123 -72.5 t45 -146t-45 -151.5q-92 -130 -293 -130q-164 0 -248.5 82.5t-87.5 236.5zM401 -49l859 1546h159l-856 -1546h-162zM971 201v168l375 516h202v-529h97v-155h-97v-201h-178v201h-399zM1126 356h244v326h-4z" />
<glyph unicode="&#xbf;" d="M100 -4q0 126 43 192.5t138 149.5q65 54 101 94q79 88 79 254h221q0 -218 -66 -317q-34 -50 -76.5 -87t-78.5 -69t-57 -57q-48 -61 -48 -161t66 -156t135 -56q122 0 185 81t63 216h233q0 -145 -60 -257t-171.5 -174.5t-248 -62.5t-238.5 49t-161 142t-59 219zM430 840 v258h275v-258h-275z" />
<glyph unicode="&#xc0;" horiz-adv-x="1366" d="M-14 0l561 1477h272l563 -1477h-274l-137 391h-584l-137 -391h-264zM377 1919h274l187 -295h-170zM457 588h446l-219 635h-6z" />
<glyph unicode="&#xc1;" horiz-adv-x="1366" d="M-14 0l561 1477h272l563 -1477h-274l-137 391h-584l-137 -391h-264zM457 588h446l-219 635h-6zM528 1593l185 295h276l-291 -295h-170z" />
<glyph unicode="&#xc2;" horiz-adv-x="1366" d="M-14 0l561 1477h272l563 -1477h-274l-137 391h-584l-137 -391h-264zM350 1624l219 295h228l221 -295h-191l-145 186l-143 -186h-189zM457 588h446l-219 635h-6z" />
<glyph unicode="&#xc3;" horiz-adv-x="1366" d="M-14 0l561 1477h272l563 -1477h-274l-137 391h-584l-137 -391h-264zM322 1638q14 91 69.5 162.5t136 71.5t172.5 -39q24 -9 44 -17q51 -22 83 -22q78 0 103 90h114q-37 -237 -227 -237q-56 0 -151 39q-108 36 -142 36t-60 -27t-26 -57h-116zM457 588h446l-219 635h-6z " />
<glyph unicode="&#xc4;" horiz-adv-x="1366" d="M-14 0l561 1477h272l563 -1477h-274l-137 391h-584l-137 -391h-264zM391 1647v223h234v-223h-234zM457 588h446l-219 635h-6zM743 1647v223h234v-223h-234z" />
<glyph unicode="&#xc5;" horiz-adv-x="1366" d="M-14 0l561 1477h272l563 -1477h-274l-137 391h-584l-137 -391h-264zM457 588h446l-219 635h-6zM473 1771.5q0 70.5 63 134.5t148.5 64t148 -63.5t62.5 -134.5t-29 -121t-77.5 -79.5t-103.5 -29.5t-104 29.5t-78.5 79.5t-29.5 120.5zM559 1757.5q0 -49.5 38 -88.5 t87.5 -39t87 38.5t37.5 80.5t-17 71q-37 62 -97.5 62t-98 -37.5t-37.5 -87z" />
<glyph unicode="&#xc6;" horiz-adv-x="1972" d="M-14 0l727 1477h1179v-224h-712v-387h667v-211h-667v-432h725v-223h-969v379h-490l-176 -379h-284zM541 575h395v678h-74z" />
<glyph unicode="&#xc7;" horiz-adv-x="1479" d="M78 711q0 185 48.5 326.5t139 248t222 166t294.5 58.5t298.5 -60.5t219.5 -173.5t99 -268h-256q-34 136 -123 214t-222.5 78t-218 -46t-137.5 -124q-108 -157 -108 -391q0 -151 47.5 -278.5t148 -206t229 -78.5t209.5 50q160 100 183 337h250q-16 -268 -187 -433 t-436 -165q-210 0 -370.5 103.5t-245 280.5t-84.5 362zM512 -414l37 82q99 -33 133 -33q125 0 125 86q0 37 -28 57.5t-70 20.5t-76 -20l-45 39l135 182h98l-92 -121v-4q16 6 64 6t87 -17q91 -38 91 -135t-72 -141.5t-151 -44.5q-156 0 -236 43z" />
<glyph unicode="&#xc8;" horiz-adv-x="1290" d="M156 0v1477h1052v-224h-796v-387h737v-211h-737v-432h811v-223h-1067zM340 1919h274l187 -295h-170z" />
<glyph unicode="&#xc9;" horiz-adv-x="1290" d="M156 0v1477h1052v-224h-796v-387h737v-211h-737v-432h811v-223h-1067zM492 1624l184 295h276l-290 -295h-170z" />
<glyph unicode="&#xca;" horiz-adv-x="1290" d="M156 0v1477h1052v-224h-796v-387h737v-211h-737v-432h811v-223h-1067zM313 1624l219 295h228l221 -295h-190l-146 186l-143 -186h-189z" />
<glyph unicode="&#xcb;" horiz-adv-x="1290" d="M156 0v1477h1052v-224h-796v-387h737v-211h-737v-432h811v-223h-1067zM354 1647v223h234v-223h-234zM707 1647v223h233v-223h-233z" />
<glyph unicode="&#xcc;" horiz-adv-x="569" d="M-20 1919h274l186 -295h-170zM156 0v1477h256v-1477h-256z" />
<glyph unicode="&#xcd;" horiz-adv-x="569" d="M131 1614l184 295h277l-291 -295h-170zM156 0v1477h256v-1477h-256z" />
<glyph unicode="&#xce;" horiz-adv-x="569" d="M-47 1624l219 295h227l222 -295h-191l-145 186l-144 -186h-188zM156 0v1477h256v-1477h-256z" />
<glyph unicode="&#xcf;" horiz-adv-x="569" d="M-6 1647v223h233v-223h-233zM156 0v1477h256v-1477h-256zM346 1647v223h234v-223h-234z" />
<glyph unicode="&#xd0;" horiz-adv-x="1479" d="M18 655v211h138v611h606q321 0 490 -212q155 -196 155 -526q0 -327 -155 -525q-79 -99 -203.5 -156.5t-286.5 -57.5h-606v655h-138zM412 211h252q395 0 466 313q21 92 21 235.5t-40.5 258t-148.5 181.5t-298 67h-252v-400h399v-211h-399v-444z" />
<glyph unicode="&#xd1;" horiz-adv-x="1479" d="M145 0v1477h271l667 -1088h4v1088h244v-1477h-270l-666 1085h-6v-1085h-244zM379 1638q14 91 69.5 162.5t136.5 71.5t173 -39q24 -9 46 -18q50 -21 81 -21q78 0 102 90h115q-37 -237 -228 -237q-56 0 -151 39q-106 36 -140.5 36t-60.5 -27t-26 -57h-117z" />
<glyph unicode="&#xd2;" horiz-adv-x="1556" d="M78 711q0 185 48.5 326.5t139 248t222 166t291 59.5t291 -59.5t222.5 -165.5q187 -219 187 -547q0 -213 -84.5 -390t-245 -280.5t-371 -103.5t-371 103.5t-245 280.5t-84.5 362zM334 739q0 -151 47.5 -278.5t148 -206t230.5 -78.5t215.5 46.5t140.5 125.5 q107 155 107 391q0 235 -107 391q-117 170 -338 170q-114 0 -198.5 -46t-137.5 -124q-108 -157 -108 -391zM473 1919h275l186 -295h-170z" />
<glyph unicode="&#xd3;" horiz-adv-x="1556" d="M78 711q0 185 48.5 326.5t139 248t222 166t291 59.5t291 -59.5t222.5 -165.5q187 -219 187 -547q0 -213 -84.5 -390t-245 -280.5t-371 -103.5t-371 103.5t-245 280.5t-84.5 362zM334 739q0 -151 47.5 -278.5t148 -206t230.5 -78.5t215.5 46.5t140.5 125.5 q107 155 107 391q0 235 -107 391q-117 170 -338 170q-114 0 -198.5 -46t-137.5 -124q-108 -157 -108 -391zM625 1593l184 295h276l-290 -295h-170z" />
<glyph unicode="&#xd4;" horiz-adv-x="1556" d="M78 711q0 185 48.5 326.5t139 248t222 166t291 59.5t291 -59.5t222.5 -165.5q187 -219 187 -547q0 -213 -84.5 -390t-245 -280.5t-371 -103.5t-371 103.5t-245 280.5t-84.5 362zM334 739q0 -151 47.5 -278.5t148 -206t230.5 -78.5t215.5 46.5t140.5 125.5 q107 155 107 391q0 235 -107 391q-117 170 -338 170q-114 0 -198.5 -46t-137.5 -124q-108 -157 -108 -391zM446 1624l220 295h227l221 -295h-190l-146 186l-143 -186h-189z" />
<glyph unicode="&#xd5;" horiz-adv-x="1556" d="M78 711q0 185 48.5 326.5t139 248t222 166t291 59.5t291 -59.5t222.5 -165.5q187 -219 187 -547q0 -213 -84.5 -390t-245 -280.5t-371 -103.5t-371 103.5t-245 280.5t-84.5 362zM334 739q0 -151 47.5 -278.5t148 -206t230.5 -78.5t215.5 46.5t140.5 125.5 q107 155 107 391q0 235 -107 391q-117 170 -338 170q-114 0 -198.5 -46t-137.5 -124q-108 -157 -108 -391zM418 1638q14 91 69.5 162.5t136.5 71.5t173 -39q24 -9 45 -18q51 -21 82 -21q78 0 102 90h115q-41 -237 -228 -237q-56 0 -151 39q-106 36 -140.5 36t-60.5 -27 t-26 -57h-117z" />
<glyph unicode="&#xd6;" horiz-adv-x="1556" d="M78 711q0 185 48.5 326.5t139 248t222 166t291 59.5t291 -59.5t222.5 -165.5q187 -219 187 -547q0 -213 -84.5 -390t-245 -280.5t-371 -103.5t-371 103.5t-245 280.5t-84.5 362zM334 739q0 -151 47.5 -278.5t148 -206t230.5 -78.5t215.5 46.5t140.5 125.5 q107 155 107 391q0 235 -107 391q-117 170 -338 170q-114 0 -198.5 -46t-137.5 -124q-108 -157 -108 -391zM487 1647v223h234v-223h-234zM840 1647v223h233v-223h-233z" />
<glyph unicode="&#xd7;" horiz-adv-x="1229" d="M113 164l356 360l-356 359l176 116l323 -329l328 329l176 -116l-358 -359l358 -360l-176 -117l-328 332l-323 -332z" />
<glyph unicode="&#xd8;" horiz-adv-x="1556" d="M78 770q0 126 48.5 267.5t139 248t222 166t290.5 59.5q273 0 455 -165l153 172l89 -74l-162 -184q166 -219 166 -521q0 -213 -84.5 -390t-245 -280.5t-371.5 -103.5q-276 0 -454 170l-156 -176l-86 74l162 186q-108 135 -147 329q-19 96 -19 222zM334 756.5 q0 -216.5 74 -350.5l673 765q-111 129 -303 129q-220 0 -336 -170q-108 -157 -108 -373.5zM475 305q119 -129 303 -129q219 0 338 172q107 155 107 370t-76 353z" />
<glyph unicode="&#xd9;" horiz-adv-x="1479" d="M139 532v945h256v-861q0 -130 20 -218t95 -149t210 -61t208 37t105.5 98t41 130.5t8.5 162.5v861h256v-945q0 -278 -165 -425q-158 -142 -435 -142q-378 0 -526 255q-74 127 -74 312zM434 1919h275l186 -295h-170z" />
<glyph unicode="&#xda;" horiz-adv-x="1479" d="M139 532v945h256v-861q0 -130 20 -218t95 -149t210 -61t208 37t105.5 98t41 130.5t8.5 162.5v861h256v-945q0 -278 -165 -425q-158 -142 -435 -142q-378 0 -526 255q-74 127 -74 312zM586 1593l184 295h277l-291 -295h-170z" />
<glyph unicode="&#xdb;" horiz-adv-x="1479" d="M139 532v945h256v-861q0 -130 20 -218t95 -149t210 -61t208 37t105.5 98t41 130.5t8.5 162.5v861h256v-945q0 -278 -165 -425q-158 -142 -435 -142q-378 0 -526 255q-74 127 -74 312zM408 1624l219 295h227l221 -295h-190l-146 186l-143 -186h-188z" />
<glyph unicode="&#xdc;" horiz-adv-x="1479" d="M139 532v945h256v-861q0 -130 20 -218t95 -149t210 -61t208 37t105.5 98t41 130.5t8.5 162.5v861h256v-945q0 -278 -165 -425q-158 -142 -435 -142q-378 0 -526 255q-74 127 -74 312zM449 1647v223h233v-223h-233zM801 1647v223h233v-223h-233z" />
<glyph unicode="&#xdd;" horiz-adv-x="1327" d="M-12 1477h297l387 -662l381 662h286l-546 -897v-580h-256v580zM510 1593l184 295h277l-291 -295h-170z" />
<glyph unicode="&#xde;" horiz-adv-x="1366" d="M156 0v1477h256v-224h389q193 0 304 -71q193 -122 193 -385q0 -302 -250 -410q-99 -43 -247 -43h-389v-344h-256zM412 555h374q104 0 180 58.5t76 189.5t-68 185t-183 54h-379v-487z" />
<glyph unicode="&#xdf;" horiz-adv-x="1176" d="M129 0v1081q0 200 124.5 315t324.5 115q110 0 212 -44.5t163 -128.5t61 -196t-53 -197.5t-156 -117.5v-4q85 -10 146.5 -61.5t94.5 -129t33 -191t-57.5 -228t-163.5 -178.5t-248 -64q-55 0 -114 6v187q30 -6 79 -6q162 0 216.5 91.5t54.5 229.5t-113 203q-75 53 -235 53 v154q141 0 202 55q80 59 80 172q0 209 -207 209q-124 0 -179 -105q-32 -60 -32 -163v-1057h-233z" />
<glyph unicode="&#xe0;" d="M66 271q0 137 57 206.5t144 97.5t197 41.5t178 23.5t108.5 37.5t40.5 90.5q0 143 -220 143q-102 0 -164 -42t-69 -126h-234q12 190 147 272.5t335 82.5q250 0 364 -134q60 -70 60 -176v-550q0 -44 12 -62t44 -18t56 4v-164q-79 -27 -147 -27q-156 0 -180 129 q-64 -63 -165.5 -96t-201.5 -33q-151 0 -256.5 81.5t-105.5 218.5zM264 1511h275l186 -294h-170zM299 300.5q0 -77.5 68.5 -110t135.5 -32.5t128 21t103 67t42 114v177q-53 -37 -155 -49t-132 -17q-88 -14 -139 -53.5t-51 -117z" />
<glyph unicode="&#xe1;" d="M66 271q0 137 57 206.5t144 97.5t197 41.5t178 23.5t108.5 37.5t40.5 90.5q0 143 -220 143q-102 0 -164 -42t-69 -126h-234q12 190 147 272.5t335 82.5q250 0 364 -134q60 -70 60 -176v-550q0 -44 12 -62t44 -18t56 4v-164q-79 -27 -147 -27q-156 0 -180 129 q-64 -63 -165.5 -96t-201.5 -33q-151 0 -256.5 81.5t-105.5 218.5zM299 300.5q0 -77.5 68.5 -110t135.5 -32.5t128 21t103 67t42 114v177q-53 -37 -155 -49t-132 -17q-88 -14 -139 -53.5t-51 -117zM416 1217l184 294h277l-291 -294h-170z" />
<glyph unicode="&#xe2;" d="M66 271q0 137 57 206.5t144 97.5t197 41.5t178 23.5t108.5 37.5t40.5 90.5q0 143 -220 143q-102 0 -164 -42t-69 -126h-234q12 190 147 272.5t335 82.5q250 0 364 -134q60 -70 60 -176v-550q0 -44 12 -62t44 -18t56 4v-164q-79 -27 -147 -27q-156 0 -180 129 q-64 -63 -165.5 -96t-201.5 -33q-151 0 -256.5 81.5t-105.5 218.5zM238 1217l219 294h227l221 -294h-190l-146 186l-143 -186h-188zM299 300.5q0 -77.5 68.5 -110t135.5 -32.5t128 21t103 67t42 114v177q-53 -37 -155 -49t-132 -17q-88 -14 -139 -53.5t-51 -117z" />
<glyph unicode="&#xe3;" d="M66 271q0 137 57 206.5t144 97.5t197 41.5t178 23.5t108.5 37.5t40.5 90.5q0 143 -220 143q-102 0 -164 -42t-69 -126h-234q12 190 147 272.5t335 82.5q250 0 364 -134q60 -70 60 -176v-550q0 -44 12 -62t44 -18t56 4v-164q-79 -27 -147 -27q-156 0 -180 129 q-64 -63 -165.5 -96t-201.5 -33q-151 0 -256.5 81.5t-105.5 218.5zM209 1231q14 90 69.5 161.5t139 71.5t170.5 -39q24 -9 46 -18q50 -21 81 -21q78 0 102 91h115q-16 -108 -70.5 -173t-156.5 -65q-57 0 -152 39q-109 37 -142 37t-59 -27t-26 -57h-117zM299 300.5 q0 -77.5 68.5 -110t135.5 -32.5t128 21t103 67t42 114v177q-53 -37 -155 -49t-132 -17q-88 -14 -139 -53.5t-51 -117z" />
<glyph unicode="&#xe4;" d="M66 271q0 137 57 206.5t144 97.5t197 41.5t178 23.5t108.5 37.5t40.5 90.5q0 143 -220 143q-102 0 -164 -42t-69 -126h-234q12 190 147 272.5t335 82.5q250 0 364 -134q60 -70 60 -176v-550q0 -44 12 -62t44 -18t56 4v-164q-79 -27 -147 -27q-156 0 -180 129 q-64 -63 -165.5 -96t-201.5 -33q-151 0 -256.5 81.5t-105.5 218.5zM279 1239v223h233v-223h-233zM299 300.5q0 -77.5 68.5 -110t135.5 -32.5t128 21t103 67t42 114v177q-53 -37 -155 -49t-132 -17q-88 -14 -139 -53.5t-51 -117zM631 1239v223h233v-223h-233z" />
<glyph unicode="&#xe5;" d="M66 271q0 137 57 206.5t144 97.5t197 41.5t178 23.5t108.5 37.5t40.5 90.5q0 143 -220 143q-102 0 -164 -42t-69 -126h-234q12 190 147 272.5t335 82.5q250 0 364 -134q60 -70 60 -176v-550q0 -44 12 -62t44 -18t56 4v-164q-79 -27 -147 -27q-156 0 -180 129 q-64 -63 -165.5 -96t-201.5 -33q-151 0 -256.5 81.5t-105.5 218.5zM299 300.5q0 -77.5 68.5 -110t135.5 -32.5t128 21t103 67t42 114v177q-53 -37 -155 -49t-132 -17q-88 -14 -139 -53.5t-51 -117zM360 1363.5q0 70.5 63.5 135t133.5 64.5t119 -29t77.5 -79.5t28.5 -105.5 t-29 -105t-77.5 -79.5t-104 -29.5t-104 29.5t-78 79t-29.5 120zM446 1349.5q0 -50.5 38 -88.5t87.5 -38t87 37.5t37.5 80t-17 71.5q-38 63 -98 63t-97.5 -37.5t-37.5 -88z" />
<glyph unicode="&#xe6;" horiz-adv-x="1821" d="M66 270.5q0 137.5 57 207t144 97.5t195 41.5t174.5 23.5t104 37t37.5 91q0 143 -207 143q-102 0 -164 -42t-69 -126h-234q12 189 146 272t330 83q121 0 211.5 -29.5t146.5 -114.5q109 144 336 144q164 0 275 -71q218 -139 218 -486q0 -45 -2 -68h-768q0 -133 70 -224 t207 -91q92 0 156.5 47.5t93.5 132.5h233q-43 -168 -173 -267.5t-306 -99.5q-276 0 -389 197q-67 -101 -184 -149t-269.5 -48t-261 81t-108.5 218.5zM299 299.5q0 -78.5 62.5 -110t139.5 -31.5t138 24.5t99 73.5t38 117v159q-22 -21 -62.5 -31t-122 -18.5t-99.5 -11.5 q-91 -14 -142 -53.5t-51 -118zM997 629h535q0 176 -122 247q-60 35 -162.5 35t-171.5 -80t-79 -202z" />
<glyph unicode="&#xe7;" d="M72 505.5q0 140.5 33.5 245.5t98.5 183q140 164 390 164q124 0 229.5 -42.5t171.5 -130t76 -214.5h-233q-13 96 -78 148t-172.5 52t-195 -85t-87.5 -302q0 -148 70 -257t211 -109q101 0 168.5 65t83.5 178h233q-43 -279 -249 -380q-102 -50 -250 -50t-264.5 71.5 t-176 197t-59.5 266zM342 -414l37 82q99 -33 133 -33q125 0 125 86q0 37 -28 57.5t-70 20.5t-76 -20l-45 39l135 182h98l-92 -121v-4q16 6 64 6t87 -17q91 -38 91 -135t-72 -141.5t-151 -44.5q-156 0 -236 43z" />
<glyph unicode="&#xe8;" d="M72 535q0 234 138 396q143 167 374 167q224 0 366 -162q137 -157 137 -383q0 -53 -4 -80h-778q0 -134 73.5 -224.5t211.5 -90.5q199 0 258 178h221q-25 -115 -95 -198q-139 -167 -384 -167q-242 0 -382 157q-136 154 -136 407zM264 1511h275l186 -294h-170zM305 629h545 q-5 74 -38 139.5t-93 104t-135 38.5q-119 0 -196.5 -80.5t-82.5 -201.5z" />
<glyph unicode="&#xe9;" d="M72 535q0 234 138 396q143 167 374 167q224 0 366 -162q137 -157 137 -383q0 -53 -4 -80h-778q0 -134 73.5 -224.5t211.5 -90.5q199 0 258 178h221q-25 -115 -95 -198q-139 -167 -384 -167q-242 0 -382 157q-136 154 -136 407zM305 629h545q-5 74 -38 139.5t-93 104 t-135 38.5q-119 0 -196.5 -80.5t-82.5 -201.5zM416 1217l184 294h277l-291 -294h-170z" />
<glyph unicode="&#xea;" d="M72 535q0 234 138 396q143 167 374 167q224 0 366 -162q137 -157 137 -383q0 -53 -4 -80h-778q0 -134 73.5 -224.5t211.5 -90.5q199 0 258 178h221q-25 -115 -95 -198q-139 -167 -384 -167q-242 0 -382 157q-136 154 -136 407zM238 1217l219 294h227l221 -294h-190 l-146 186l-143 -186h-188zM305 629h545q-5 74 -38 139.5t-93 104t-135 38.5q-119 0 -196.5 -80.5t-82.5 -201.5z" />
<glyph unicode="&#xeb;" d="M72 535q0 234 138 396q143 167 374 167q224 0 366 -162q137 -157 137 -383q0 -53 -4 -80h-778q0 -134 73.5 -224.5t211.5 -90.5q199 0 258 178h221q-25 -115 -95 -198q-139 -167 -384 -167q-242 0 -382 157q-136 154 -136 407zM279 1239v223h233v-223h-233zM305 629h545 q-5 74 -38 139.5t-93 104t-135 38.5q-119 0 -196.5 -80.5t-82.5 -201.5zM631 1239v223h233v-223h-233z" />
<glyph unicode="&#xec;" horiz-adv-x="494" d="M-59 1511h274l186 -294h-170zM129 0v1069h233v-1069h-233z" />
<glyph unicode="&#xed;" horiz-adv-x="494" d="M92 1217l184 294h277l-291 -294h-170zM129 0v1069h233v-1069h-233z" />
<glyph unicode="&#xee;" horiz-adv-x="494" d="M-86 1217l219 294h227l222 -294h-191l-145 186l-144 -186h-188zM129 0v1069h233v-1069h-233z" />
<glyph unicode="&#xef;" horiz-adv-x="494" d="M-45 1239v223h233v-223h-233zM129 0v1069h233v-1069h-233zM307 1239v223h234v-223h-234z" />
<glyph unicode="&#xf0;" horiz-adv-x="1214" d="M86 522q0 137 56 257.5t160.5 194t256 73.5t277.5 -91h4q-60 136 -222 271l-221 -109l-102 103l197 94q-56 24 -76 33q-62 28 -99 38l156 125q113 -36 213 -102l215 102l100 -100l-192 -94q207 -170 281 -421q36 -124 36 -257q0 -297 -133.5 -482.5t-417.5 -185.5 q-229 0 -359 152.5t-130 398.5zM319 506q0 -149 68 -248.5t203 -99.5q90 0 159.5 49.5t106.5 130.5t37 171t-29.5 171t-93 130.5t-163 49.5t-165.5 -47q-123 -89 -123 -307z" />
<glyph unicode="&#xf1;" horiz-adv-x="1176" d="M123 0v1069h221v-158l4 -4q71 121 199 168q63 23 140 23t147 -23t119 -69q100 -94 100 -271v-735h-234v672q-3 126 -53 182.5t-158.5 56.5t-180 -79.5t-71.5 -200.5v-631h-233zM227 1231q16 90 71.5 161.5t138 71.5t169.5 -39q24 -9 46 -18q50 -21 81 -21q78 0 103 91 h114q-37 -238 -227 -238q-55 0 -152 39q-109 37 -142 37t-59 -27t-26 -57h-117z" />
<glyph unicode="&#xf2;" horiz-adv-x="1214" d="M74 535.5q0 164.5 63 291.5t184 199t287 72t287.5 -72t184.5 -198t63 -292t-63 -293.5t-184.5 -199.5t-287.5 -72t-287 72t-184 200t-63 292.5zM301 1511h274l187 -294h-170zM307 536q0 -97 33 -184t100.5 -140.5t167.5 -53.5t167.5 53.5t100.5 140.5t33 184t-33 182.5 t-100.5 139t-167.5 53.5t-167.5 -53.5t-100.5 -139t-33 -182.5z" />
<glyph unicode="&#xf3;" horiz-adv-x="1214" d="M74 535.5q0 164.5 63 291.5t184 199t287 72t287.5 -72t184.5 -198t63 -292t-63 -293.5t-184.5 -199.5t-287.5 -72t-287 72t-184 200t-63 292.5zM307 536q0 -97 33 -184t100.5 -140.5t167.5 -53.5t167.5 53.5t100.5 140.5t33 184t-33 182.5t-100.5 139t-167.5 53.5 t-167.5 -53.5t-100.5 -139t-33 -182.5zM453 1217l184 294h276l-290 -294h-170z" />
<glyph unicode="&#xf4;" horiz-adv-x="1214" d="M74 535.5q0 164.5 63 291.5t184 199t287 72t287.5 -72t184.5 -198t63 -292t-63 -293.5t-184.5 -199.5t-287.5 -72t-287 72t-184 200t-63 292.5zM274 1217l220 294h227l221 -294h-190l-146 186l-143 -186h-189zM307 536q0 -97 33 -184t100.5 -140.5t167.5 -53.5 t167.5 53.5t100.5 140.5t33 184t-33 182.5t-100.5 139t-167.5 53.5t-167.5 -53.5t-100.5 -139t-33 -182.5z" />
<glyph unicode="&#xf5;" horiz-adv-x="1214" d="M74 535.5q0 164.5 63 291.5t184 199t287 72t287.5 -72t184.5 -198t63 -292t-63 -293.5t-184.5 -199.5t-287.5 -72t-287 72t-184 200t-63 292.5zM246 1231q14 90 69.5 161.5t139 71.5t170.5 -39q24 -9 45 -18q51 -21 82 -21q78 0 102 91h115q-39 -238 -228 -238 q-56 0 -151 39q-109 37 -142.5 37t-59.5 -27t-26 -57h-116zM307 536q0 -97 33 -184t100.5 -140.5t167.5 -53.5t167.5 53.5t100.5 140.5t33 184t-33 182.5t-100.5 139t-167.5 53.5t-167.5 -53.5t-100.5 -139t-33 -182.5z" />
<glyph unicode="&#xf6;" horiz-adv-x="1214" d="M74 535.5q0 164.5 63 291.5t184 199t287 72t287.5 -72t184.5 -198t63 -292t-63 -293.5t-184.5 -199.5t-287.5 -72t-287 72t-184 200t-63 292.5zM307 536q0 -97 33 -184t100.5 -140.5t167.5 -53.5t167.5 53.5t100.5 140.5t33 184t-33 182.5t-100.5 139t-167.5 53.5 t-167.5 -53.5t-100.5 -139t-33 -182.5zM315 1239v223h234v-223h-234zM668 1239v223h233v-223h-233z" />
<glyph unicode="&#xf7;" horiz-adv-x="1229" d="M98 418v211h1032v-211h-1032zM467 97.5q0 60.5 44 104.5t94 44t84 -20q73 -45 73 -130q0 -55 -44 -101t-102.5 -46t-103.5 44t-45 104.5zM467 960.5q0 49.5 44 93.5t93.5 44t83.5 -20q74 -44 74 -128q0 -57 -43.5 -103t-92.5 -46t-83.5 20t-55 55t-20.5 84.5z" />
<glyph unicode="&#xf8;" horiz-adv-x="1214" d="M66 0l133 150q-125 150 -125 387q0 163 63 290t184 199t287 72q214 0 348 -113l129 141l66 -57l-133 -147q125 -149 125 -385q0 -167 -63 -294.5t-184.5 -199.5t-287.5 -72q-209 0 -346 115l-131 -143zM307 524q0 -109 47 -202l457 503q-78 86 -190.5 86t-180 -53.5 t-100.5 -139t-33 -194.5zM406 244q78 -86 190 -86t179.5 53.5t100.5 140.5t33 195.5t-47 202.5z" />
<glyph unicode="&#xf9;" horiz-adv-x="1176" d="M123 391v678h233v-655q0 -136 52 -196t151 -60q260 0 260 291v620h234v-1069h-230v150h-4q-56 -109 -184 -156q-60 -23 -140 -23t-155.5 27t-121.5 78q-95 105 -95 315zM283 1511h274l186 -294h-170z" />
<glyph unicode="&#xfa;" horiz-adv-x="1176" d="M123 391v678h233v-655q0 -136 52 -196t151 -60q260 0 260 291v620h234v-1069h-230v150h-4q-56 -109 -184 -156q-60 -23 -140 -23t-155.5 27t-121.5 78q-95 105 -95 315zM434 1217l184 294h277l-291 -294h-170z" />
<glyph unicode="&#xfb;" horiz-adv-x="1176" d="M123 391v678h233v-655q0 -136 52 -196t151 -60q260 0 260 291v620h234v-1069h-230v150h-4q-56 -109 -184 -156q-60 -23 -140 -23t-155.5 27t-121.5 78q-95 105 -95 315zM256 1217l219 294h227l222 -294h-191l-145 186l-144 -186h-188z" />
<glyph unicode="&#xfc;" horiz-adv-x="1176" d="M123 391v678h233v-655q0 -136 52 -196t151 -60q260 0 260 291v620h234v-1069h-230v150h-4q-56 -109 -184 -156q-60 -23 -140 -23t-155.5 27t-121.5 78q-95 105 -95 315zM297 1239v223h233v-223h-233zM649 1239v223h234v-223h-234z" />
<glyph unicode="&#xfd;" horiz-adv-x="1063" d="M6 1069h256l277 -799h4l268 799h244l-412 -1126q-53 -136 -88.5 -203.5t-104 -115.5t-166 -48t-178.5 12v199q86 -14 111 -14q75 0 107.5 35t56.5 114l27 82zM377 1217l184 294h277l-291 -294h-170z" />
<glyph unicode="&#xfe;" horiz-adv-x="1251" d="M129 -395v1872h233v-545h5q48 76 136 121t179 45q240 0 368 -160t128 -408q0 -149 -50.5 -277t-154.5 -205t-233 -77q-270 0 -373 168h-5v-534h-233zM354 540q0 -171 79.5 -276.5t222.5 -105.5t215.5 109.5t72.5 266t-77 267t-218.5 110.5t-218 -100t-76.5 -271z" />
<glyph unicode="&#xff;" horiz-adv-x="1063" d="M6 1069h256l277 -799h4l268 799h244l-412 -1126q-53 -136 -88.5 -203.5t-104 -115.5t-166 -48t-178.5 12v199q86 -14 111 -14q75 0 107.5 35t56.5 114l27 82zM240 1239v223h233v-223h-233zM592 1239v223h233v-223h-233z" />
<glyph unicode="&#x152;" horiz-adv-x="2238" d="M84 733q0 326 182 547q189 231 506 231q239 0 369 -151v117h999v-224h-766v-387h703v-211h-703v-432h780v-223h-1013v133q-70 -83 -171 -125.5t-236 -42.5t-261.5 61t-213.5 170q-175 218 -175 537zM340 737q0 -147 48 -275t146.5 -207t245.5 -79q158 0 259 92 q91 83 91 185v551q0 124 -86 206q-96 90 -253 90t-256 -80t-147 -208t-48 -275z" />
<glyph unicode="&#x153;" horiz-adv-x="1858" d="M72 539q0 238 132 395q140 164 374 164q270 0 370 -180q57 92 156 136t215 44q176 0 285 -84q204 -155 204 -541h-774q2 -140 72.5 -227.5t204.5 -87.5q92 0 164 47t88 135h233q-63 -269 -310 -344q-80 -25 -191 -25q-259 0 -359 197q-55 -107 -150 -152t-220.5 -45 t-218 44.5t-153.5 122.5q-122 158 -122 401zM305 543q0 -233 109 -331q60 -54 161 -54q148 0 209.5 110t61.5 275q0 150 -62 251q-71 117 -219 117q-83 0 -143 -53q-117 -104 -117 -315zM1034 629h541q-16 282 -287 282q-101 0 -175 -82.5t-79 -199.5z" />
<glyph unicode="&#x178;" horiz-adv-x="1327" d="M-12 1477h297l387 -662l381 662h286l-546 -897v-580h-256v580zM373 1647v223h233v-223h-233zM725 1647v223h233v-223h-233z" />
<glyph unicode="&#x2c6;" horiz-adv-x="494" d="M-86 1217l219 294h227l222 -294h-191l-145 186l-144 -186h-188z" />
<glyph unicode="&#x2dc;" horiz-adv-x="494" d="M-115 1231q16 90 71.5 161.5t138 71.5t169.5 -39q24 -9 46 -18q50 -21 81 -21q78 0 103 91h114q-37 -238 -227 -238q-55 0 -152 39q-109 37 -142 37t-59 -27t-26 -57h-117z" />
<glyph unicode="&#x2000;" horiz-adv-x="985" />
<glyph unicode="&#x2001;" horiz-adv-x="1970" />
<glyph unicode="&#x2002;" horiz-adv-x="985" />
<glyph unicode="&#x2003;" horiz-adv-x="1970" />
<glyph unicode="&#x2004;" horiz-adv-x="656" />
<glyph unicode="&#x2005;" horiz-adv-x="492" />
<glyph unicode="&#x2006;" horiz-adv-x="328" />
<glyph unicode="&#x2007;" horiz-adv-x="328" />
<glyph unicode="&#x2008;" horiz-adv-x="246" />
<glyph unicode="&#x2009;" horiz-adv-x="394" />
<glyph unicode="&#x200a;" horiz-adv-x="109" />
<glyph unicode="&#x2010;" horiz-adv-x="797" d="M100 451v223h596v-223h-596z" />
<glyph unicode="&#x2011;" horiz-adv-x="797" d="M100 451v223h596v-223h-596z" />
<glyph unicode="&#x2012;" horiz-adv-x="797" d="M100 451v223h596v-223h-596z" />
<glyph unicode="&#x2013;" horiz-adv-x="1024" d="M0 451v223h1024v-223h-1024z" />
<glyph unicode="&#x2014;" horiz-adv-x="2048" d="M0 451v223h2048v-223h-2048z" />
<glyph unicode="&#x2018;" horiz-adv-x="569" d="M158 893v281q0 111 71.5 191t184.5 112v-119q-125 -45 -125 -184h125v-281h-256z" />
<glyph unicode="&#x2019;" horiz-adv-x="569" d="M158 893v121q125 15 125 184h-125v279h256v-279q0 -120 -69 -205t-187 -100z" />
<glyph unicode="&#x201a;" horiz-adv-x="569" d="M158 0v279h256v-279q0 -112 -71 -190.5t-185 -112.5v119q125 42 125 184h-125z" />
<glyph unicode="&#x201c;" horiz-adv-x="909" d="M123 893v281q0 111 72.5 191t183.5 112v-119q-125 -45 -125 -184h125v-281h-256zM530 893v281q0 111 72.5 191t183.5 112v-119q-124 -48 -124 -184h124v-281h-256z" />
<glyph unicode="&#x201d;" horiz-adv-x="909" d="M123 893v121q125 42 125 184h-125v279h256v-279q0 -111 -70.5 -190t-185.5 -115zM530 893v121q125 42 125 184h-125v279h256v-279q0 -113 -70.5 -191t-185.5 -114z" />
<glyph unicode="&#x201e;" horiz-adv-x="909" d="M123 0v279h256v-279q0 -112 -71 -190.5t-185 -112.5v119q125 42 125 184h-125zM530 0v279h256v-279q0 -114 -71 -191.5t-185 -111.5v119q125 42 125 184h-125z" />
<glyph unicode="&#x2022;" horiz-adv-x="1024" d="M147 739q0 99 48.5 184.5t133 134t171.5 48.5t155.5 -29t118.5 -79q105 -107 105 -259q0 -100 -49.5 -185.5t-133 -135t-184 -49.5t-184 49.5t-132.5 135.5t-49 185z" />
<glyph unicode="&#x2026;" horiz-adv-x="2048" d="M199 0v279h284v-279h-284zM881 0v279h284v-279h-284zM1563 0v279h284v-279h-284z" />
<glyph unicode="&#x202f;" horiz-adv-x="394" />
<glyph unicode="&#x2039;" horiz-adv-x="530" d="M102 446v232l318 256v-215l-195 -156l195 -157v-213z" />
<glyph unicode="&#x203a;" horiz-adv-x="530" d="M111 193v213l194 157l-194 156v215l317 -256v-232z" />
<glyph unicode="&#x205f;" horiz-adv-x="492" />
<glyph unicode="&#x2122;" horiz-adv-x="2028" d="M121 1341v136h680v-136h-258v-716h-164v716h-258zM973 625v852h237l232 -605l229 605h236v-852h-154v665h-4l-252 -665h-115l-252 665h-4v-665h-153z" />
<glyph unicode="&#xe000;" horiz-adv-x="1070" d="M0 0v1070h1070v-1070h-1070z" />
</font>
</defs>
</svg>
