<?xml version="1.0" standalone="no"?>
<!DOCTYPE svg PUBLIC "-//W3C//DTD SVG 1.1//EN" "http://www.w3.org/Graphics/SVG/1.1/DTD/svg11.dtd" >
<svg xmlns="http://www.w3.org/2000/svg">
<metadata></metadata>
<defs>
<font id="ContextRepriseMediumConNormal" horiz-adv-x="948" >
<font-face units-per-em="2048" ascent="1638" descent="-410" />
<missing-glyph horiz-adv-x="492" />
<glyph horiz-adv-x="0" />
<glyph horiz-adv-x="0" />
<glyph unicode="&#xd;" horiz-adv-x="0" />
<glyph unicode=" "  horiz-adv-x="492" />
<glyph unicode="&#x09;" horiz-adv-x="492" />
<glyph unicode="&#xa0;" horiz-adv-x="492" />
<glyph unicode="!" horiz-adv-x="569" d="M168 0v236h233v-236h-233zM168 1010v467h233v-467l-34 -613h-164z" />
<glyph unicode="&#x22;" horiz-adv-x="872" d="M156 885v592h176v-592h-176zM541 885v592h176v-592h-176z" />
<glyph unicode="#" horiz-adv-x="983" d="M-6 414v153h199l40 301h-180v154h201l57 414h170l-57 -414h217l57 414h170l-57 -414h178v-154h-198l-41 -301h180v-153h-201l-57 -414h-170l57 414h-217l-57 -414h-170l57 414h-178zM362 567h218l41 301h-218z" />
<glyph unicode="$" horiz-adv-x="983" d="M33 410v32h233v-32q0 -118 41 -181t135 -79v479l-84 30q-163 61 -234 153.5t-71 227t51 227.5t141 145t197 52v146h90v-146q210 0 300 -118.5t90 -262.5v-28h-234v28q0 89 -35.5 142t-120.5 61v-457l130 -45q150 -55 219 -144t69 -232.5t-51 -237.5q-99 -182 -367 -199 v-178h-90v178q-161 8 -252.5 73t-124 159.5t-32.5 206.5zM287 1079q0 -146 155 -215v422q-68 -6 -111.5 -59.5t-43.5 -147.5zM532 150q88 13 136.5 71.5t48.5 146.5q0 174 -185 226v-444z" />
<glyph unicode="%" horiz-adv-x="1554" d="M74 1067q0 218 74 307.5t206.5 89.5t206.5 -89.5t74 -307.5q0 -282 -133 -361q-62 -36 -147 -36t-147 36q-134 78 -134 361zM250 1091.5q0 -126.5 8.5 -182.5t31 -83t74 -27t73.5 59t22 209.5t-22 209t-83 58.5t-82.5 -58.5t-21.5 -185zM369 -29l649 1493h158l-654 -1493 h-153zM920 368.5q0 216.5 73.5 307t206.5 90.5t207 -90.5t74 -307t-74 -307t-207 -90.5t-206.5 90.5t-73.5 307zM1096 390.5q0 -171.5 21.5 -232t82.5 -60.5t83 60.5t22 210.5t-22 209t-74 59t-74 -27q-39 -48 -39 -219.5z" />
<glyph unicode="&#x26;" horiz-adv-x="1176" d="M43 379q0 230 205 387l92 70l-55 82q-95 148 -95 243q0 152 97.5 234t251.5 82q66 0 140 -26.5t127.5 -92.5t53.5 -172t-46 -180t-132 -140l-76 -55l256 -365q58 94 58 226v28h184v-18q0 -122 -40 -229.5t-85 -171.5l199 -281h-248l-88 127q-79 -74 -166 -115t-204 -41 t-201.5 39t-134.5 102q-93 117 -93 267zM264 395q0 -66 33.5 -119.5t90.5 -84.5t124 -31q123 0 227 112l-297 422l-43 -37q-135 -108 -135 -262zM387 1184.5q0 -76.5 86 -193.5l33 -43l51 47q107 103 107 191q0 65 -38 101t-96.5 36t-100.5 -31t-42 -107.5z" />
<glyph unicode="'" horiz-adv-x="492" d="M158 885v592h176v-592h-176z" />
<glyph unicode="(" horiz-adv-x="530" d="M76 549q0 352 150 673q69 147 151 255h153q-233 -397 -233 -928q0 -346 102 -649q52 -155 131 -281h-157q-131 175 -214 418.5t-83 511.5z" />
<glyph unicode=")" horiz-adv-x="530" d="M0 -381q233 394 233 930q0 250 -58.5 497.5t-174.5 430.5h158q205 -267 274 -657q23 -129 23 -266.5t-24 -274.5t-65 -254q-81 -234 -212 -406h-154z" />
<glyph unicode="*" horiz-adv-x="758" d="M33 1174l47 135l231 -90v258h140v-256l227 88l47 -135l-233 -70l159 -213l-114 -88l-156 217l-152 -217l-114 88l155 213z" />
<glyph unicode="+" horiz-adv-x="1229" d="M96 434v178h430v435h176v-435h431v-178h-431v-434h-176v434h-430z" />
<glyph unicode="," horiz-adv-x="492" d="M129 0v272h233v-272q0 -179 -94 -258q-51 -43 -139 -61v120q102 29 102 168v31h-102z" />
<glyph unicode="-" horiz-adv-x="721" d="M92 492v210h537v-210h-537z" />
<glyph unicode="." horiz-adv-x="492" d="M129 0v272h233v-272h-233z" />
<glyph unicode="/" horiz-adv-x="606" d="M-20 -29l464 1534h183l-465 -1534h-182z" />
<glyph unicode="0" horiz-adv-x="983" d="M57 717.5q0 409.5 107.5 578t327.5 168.5t327 -168.5t107 -578t-107.5 -578t-326.5 -168.5t-327 168.5t-108 578zM291 717.5q0 -214.5 17 -342t60.5 -183t123.5 -55.5t123 55.5t60 183t17 342t-17 341.5t-60 183t-123 56t-123.5 -56t-60.5 -183t-17 -341.5z" />
<glyph unicode="1" horiz-adv-x="983" d="M123 1063v154h22q129 0 222 46.5t120 172.5v28h170v-1464h-233v1063h-301z" />
<glyph unicode="2" horiz-adv-x="983" d="M68 0q0 215 79.5 348t237 270.5t224.5 223t67 235.5q0 98 -43.5 159.5t-149 61.5t-148 -84t-42.5 -221h-221q0 308 182 415q95 56 246 56q211 0 310 -109t99 -278t-65 -278t-208.5 -231.5t-207.5 -187t-100 -181.5h587v-199h-847z" />
<glyph unicode="3" horiz-adv-x="983" d="M63 408h222q0 -115 45.5 -193t151.5 -78t155 72t49 201.5t-53 195.5t-182 66h-91v166h84q209 0 209 249q0 88 -41 149.5t-127 61.5q-184 0 -184 -256h-221q0 206 105.5 314t312.5 108q227 0 332 -153q57 -84 57 -221q0 -74 -28.5 -145t-82 -117.5t-121.5 -57.5v-6 q116 -9 190.5 -99.5t74.5 -237.5t-48 -249q-99 -207 -395 -207q-414 0 -414 437z" />
<glyph unicode="4" horiz-adv-x="983" d="M43 330v202l502 932h237v-946h158v-188h-158v-330h-221v330h-518zM231 518h330v602h-4z" />
<glyph unicode="5" horiz-adv-x="983" d="M66 365v30h221v-39q0 -88 48.5 -147t141.5 -59q207 0 207 322.5t-195 322.5q-73 0 -124 -37t-66 -99l-207 9l72 768h698v-189h-524l-47 -385l4 -4q100 115 242.5 115t228.5 -71q152 -125 152 -415q0 -233 -111.5 -374.5t-320.5 -141.5t-314.5 100.5t-105.5 293.5z" />
<glyph unicode="6" horiz-adv-x="983" d="M51 648q0 204 20 343.5t71 246.5q107 226 372 226q391 0 391 -356h-233q0 76 -37.5 133t-118.5 57q-145 0 -188 -140.5t-43 -362.5l6 -4q85 155 282 155q101 0 182.5 -49.5t129 -149.5t47.5 -254.5t-48 -274.5q-98 -247 -397 -247q-329 0 -401 321q-35 152 -35 356z M305 449q0 -144 51 -228t150 -84q68 0 111 41q81 79 81 273q0 317 -192 317q-117 0 -159 -87.5t-42 -231.5z" />
<glyph unicode="7" horiz-adv-x="983" d="M61 1225v211h861v-187q-112 -146 -211 -356.5t-164.5 -444.5t-81.5 -448h-246q25 318 165 662q132 326 312 563h-635z" />
<glyph unicode="8" horiz-adv-x="983" d="M53 410q0 157 68 250.5t180 115.5v4q-201 69 -201 316q0 110 48 194q97 174 344 174q118 0 207 -44.5t136.5 -129t47.5 -194.5q0 -247 -201 -316v-4q113 -22 180.5 -115.5t67.5 -250.5q0 -439 -438 -439q-439 0 -439 439zM287 414.5q0 -130.5 45.5 -204t159.5 -73.5 t159 73.5t45 204t-44.5 203t-159 72.5t-160 -72.5t-45.5 -203zM309 1077q0 -221 182.5 -221t182.5 221t-182.5 221t-182.5 -221z" />
<glyph unicode="9" horiz-adv-x="983" d="M51 926q0 261 110 399.5t335 138.5q329 0 402 -320q34 -153 34 -355t-20.5 -344t-70.5 -247q-107 -227 -372 -227q-391 0 -391 357h233q0 -76 38.5 -133.5t117 -57.5t126.5 46t69 118q36 119 36 340l-6 4q-85 -156 -282 -156q-101 0 -182.5 49.5t-129 149.5t-47.5 238z M285 983q0 -315 192 -315q116 0 158.5 87t42.5 206.5t-22 188.5q-48 148 -179 148q-192 0 -192 -315z" />
<glyph unicode=":" horiz-adv-x="492" d="M129 0v272h233v-272h-233zM129 786v273h233v-273h-233z" />
<glyph unicode=";" horiz-adv-x="492" d="M129 0v272h233v-272q0 -179 -94 -258q-51 -43 -139 -61v120q102 29 102 168v31h-102zM129 786v273h233v-273h-233z" />
<glyph unicode="&#x3c;" horiz-adv-x="1229" d="M96 446v154l1037 467v-178l-828 -365l828 -366v-178z" />
<glyph unicode="=" horiz-adv-x="1229" d="M96 219v178h1037v-178h-1037zM96 649v178h1037v-178h-1037z" />
<glyph unicode="&#x3e;" horiz-adv-x="1229" d="M96 -20v178l828 366l-828 365v178l1037 -467v-154z" />
<glyph unicode="?" d="M72 1036q0 211 97 340t306 129q258 0 355 -181q47 -89 47 -211.5t-43 -205.5t-129.5 -175t-118 -135t-31.5 -114v-86h-209v125q0 98 37 159.5t111 132.5t111.5 133t37.5 161q0 219 -166 219q-99 0 -141.5 -75t-42.5 -216h-221zM332 0v236h233v-236h-233z" />
<glyph unicode="@" horiz-adv-x="1638" d="M59 741q0 159 57.5 300.5t162.5 245t252.5 161t337 57.5t355.5 -80t260.5 -224t94.5 -308.5t-49.5 -277.5t-129.5 -185.5t-171 -109.5t-167 -37t-111.5 33.5t-35.5 89.5h-4q-110 -123 -254 -123q-79 0 -144 41.5t-102.5 118.5t-37.5 179t36.5 203t102.5 181 q140 168 307 168t246 -160l39 121h145l-153 -557q-23 -84 -23 -103q0 -45 68 -45q42 0 87.5 32.5t81.5 89.5q83 129 83 283.5t-74.5 267t-200 174.5t-260 62t-247.5 -48.5t-194.5 -133t-126 -195t-44.5 -236.5t47 -236.5t131 -189.5q172 -163 412 -163q323 0 505 182h172 q-119 -217 -381 -303q-135 -45 -296 -45q-220 0 -397 92.5t-278.5 268t-101.5 409.5zM549 645q0 -133 83 -183q43 -26 108.5 -26t127 63t99 155.5t37.5 166.5q0 199 -166 199q-121 0 -207 -124q-82 -117 -82 -251z" />
<glyph unicode="A" horiz-adv-x="1063" d="M-18 0l415 1477h299l385 -1477h-243l-90 362h-429l-94 -362h-243zM362 551h347l-168 727h-4z" />
<glyph unicode="B" horiz-adv-x="1100" d="M121 0v1477h473q177 0 285 -86.5t108 -272.5q0 -268 -215 -334v-4q128 -22 195 -110t67 -267q0 -121 -55 -212t-157 -141t-238 -50h-463zM354 178h232q103 0 159 66.5t56 170t-29 159.5q-59 114 -201 114h-217v-510zM354 854h185q103 0 159 63t56 177.5t-61 159 t-175 44.5h-164v-444z" />
<glyph unicode="C" horiz-adv-x="1063" d="M86 738.5q0 269.5 45 437.5t150.5 248.5t289.5 80.5q272 0 356.5 -140t84.5 -323v-26h-234v24q0 123 -46.5 205t-150 82t-157.5 -48q-105 -95 -105 -534q0 -444 106 -544q54 -51 144 -51q129 0 173 105t44 249v26h234v-32q0 -319 -188 -454q-101 -73 -273 -73t-278 81 t-150.5 249t-44.5 437.5z" />
<glyph unicode="D" horiz-adv-x="1139" d="M121 0v1477h416q317 0 427 -201q54 -97 71.5 -222.5t17.5 -314.5t-17.5 -315.5t-71.5 -223.5q-111 -200 -427 -200h-416zM354 178h193q99 0 158 51q114 99 114 510q0 406 -111 506q-59 53 -161 53h-193v-1120z" />
<glyph unicode="E" horiz-adv-x="985" d="M121 0v1477h790v-199h-557v-410h525v-198h-525v-471h574v-199h-807z" />
<glyph unicode="F" d="M121 0v1477h780v-199h-547v-410h514v-198h-514v-670h-233z" />
<glyph unicode="G" horiz-adv-x="1100" d="M86 739q0 587 267 721q91 45 238.5 45t243 -72.5t130 -169.5t34.5 -184v-26h-221v34q0 100 -48 170t-146.5 70t-153.5 -49q-111 -100 -111 -533q0 -442 102 -544q51 -51 137 -51t140 45q101 85 101 405h-246v178h467v-778h-176v172h-4q-50 -107 -122.5 -154t-194.5 -47 t-205 46t-134 139q-98 181 -98 583z" />
<glyph unicode="H" horiz-adv-x="1139" d="M121 0v1477h233v-592h430v592h234v-1477h-234v686h-430v-686h-233z" />
<glyph unicode="I" horiz-adv-x="455" d="M111 0v1477h233v-1477h-233z" />
<glyph unicode="J" horiz-adv-x="909" d="M33 350v94h221v-71q0 -107 33 -164.5t114 -58.5h2q79 0 113 39t41.5 97t7.5 156v1035h234v-1069q0 -304 -183 -394q-87 -43 -210 -43q-205 1 -287.5 105t-85.5 274z" />
<glyph unicode="K" horiz-adv-x="1063" d="M121 0v1477h233v-643h4l443 643h256l-422 -623l467 -854h-264l-355 664l-129 -187v-477h-233z" />
<glyph unicode="L" horiz-adv-x="909" d="M94 0v1477h234v-1278h565v-199h-799z" />
<glyph unicode="M" horiz-adv-x="1479" d="M121 0v1477h364l258 -1094h5l253 1094h357v-1477h-221v1229h-4l-295 -1229h-197l-295 1229h-4v-1229h-221z" />
<glyph unicode="N" horiz-adv-x="1176" d="M121 0v1477h285l423 -1100h5v1100h221v-1477h-285l-424 1128h-4v-1128h-221z" />
<glyph unicode="O" horiz-adv-x="1139" d="M86 739q0 397 116 581q116 185 367 185q253 0 369 -185q115 -183 115 -581t-115 -582q-118 -186 -369 -186t-367 187q-116 184 -116 581zM319 745q0 -491 150 -571q44 -24 112 -24t121 46q117 100 117 549q0 439 -117 537q-54 45 -122.5 45t-112 -23.5t-77.5 -85.5 q-71 -131 -71 -473z" />
<glyph unicode="P" horiz-adv-x="1024" d="M121 0v1477h463q135 0 226 -54q177 -105 177 -376q0 -202 -112 -319.5t-316 -117.5h-205v-610h-233zM354 788h166q144 0 203 108q31 56 31 164t-57.5 173t-192.5 65h-150v-510z" />
<glyph unicode="Q" horiz-adv-x="1139" d="M86 739q0 397 116 581q116 185 367 185q253 0 369 -185q115 -183 115 -581.5t-115 -584.5l149 -160l-139 -127l-149 153q-86 -49 -221 -49t-226.5 46.5t-149.5 140.5q-116 184 -116 581zM319 745q0 -491 150 -571q44 -24 96 -24t88 14l-110 108l133 136l96 -97 q47 119 47 394t-31.5 403.5t-85.5 173.5t-122.5 45t-112 -23.5t-77.5 -85.5q-71 -131 -71 -473z" />
<glyph unicode="R" horiz-adv-x="1100" d="M121 0v1477h516q166 0 268.5 -92t102.5 -289q0 -203 -112 -300q-55 -49 -132 -61v-4q166 -17 210 -170q16 -53 18 -118t3.5 -118.5t3 -110t2.5 -85.5q6 -88 70 -129h-264q-29 34 -36 105t-9 163.5t-4 157t-22 116.5q-39 99 -191 99h-191v-641h-233zM354 819h187 q149 0 205 111q28 53 28 151t-53.5 157.5t-167.5 59.5h-199v-479z" />
<glyph unicode="S" horiz-adv-x="1063" d="M68 422v35h233v-37q0 -270 240 -270q105 0 163 62.5t58 163.5q0 191 -209 251l-160 55q-163 64 -234 157t-71 248q0 200 123 309t352 109t311 -113.5t82 -275.5v-33h-233v31q0 213 -205 213q-84 0 -140 -51.5t-56 -161.5q0 -120 92 -185q48 -34 127 -65l157 -57 q206 -74 266 -215q31 -74 31 -176q0 -445 -483 -445q-246 0 -345 131.5t-99 319.5z" />
<glyph unicode="T" d="M12 1278v199h924v-199h-342v-1278h-234v1278h-348z" />
<glyph unicode="U" horiz-adv-x="1100" d="M102 436v1041h234v-1059q0 -268 214 -268t214 268v1059h233v-1041q0 -247 -113.5 -356t-332.5 -109q-297 0 -397 195q-52 104 -52 270z" />
<glyph unicode="V" horiz-adv-x="985" d="M-12 1477h248l247 -1180h4l263 1180h247l-368 -1477h-297z" />
<glyph unicode="W" horiz-adv-x="1518" d="M12 1477h236l192 -1147h4l193 1147h246l196 -1153h4l191 1153h231l-291 -1477h-270l-188 1112h-4l-187 -1112h-270z" />
<glyph unicode="X" horiz-adv-x="1024" d="M0 0l385 752l-352 725h258l233 -490l230 490h252l-355 -725l373 -752h-258l-254 535l-260 -535h-252z" />
<glyph unicode="Y" horiz-adv-x="985" d="M-8 1477h260l246 -637l252 637h243l-391 -899v-578h-233v578z" />
<glyph unicode="Z" d="M37 0v186l612 1092h-575v199h831v-199l-612 -1079h618v-199h-874z" />
<glyph unicode="[" horiz-adv-x="569" d="M158 -381v1858h415v-166h-206v-1526h206v-166h-415z" />
<glyph unicode="\" horiz-adv-x="606" d="M-20 1505h182l465 -1534h-183z" />
<glyph unicode="]" horiz-adv-x="569" d="M-4 -215h207v1526h-207v166h416v-1858h-416v166z" />
<glyph unicode="^" horiz-adv-x="1229" d="M117 580l418 856h155l422 -856h-176l-322 677l-321 -677h-176z" />
<glyph unicode="_" horiz-adv-x="1024" d="M0 -156h1024v-102h-1024v102z" />
<glyph unicode="`" horiz-adv-x="455" d="M-29 1556h246l123 -299h-152z" />
<glyph unicode="a" d="M63 289.5q0 111.5 31.5 179.5t85 102t139.5 62l173 47q89 23 114 70q15 28 15 91t-34 105.5t-125.5 42.5t-126 -57t-34.5 -156h-209q0 185 88.5 276t298.5 91q158 0 254 -67.5t96 -207.5v-637q0 -32 16.5 -54.5t40.5 -22.5t38 6v-146q-58 -26 -109 -26q-178 0 -186 147 h-4q-89 -164 -275 -164q-184 0 -252 137q-35 70 -35 181.5zM285 303q0 -73 36 -119.5t101 -46.5q98 0 148.5 69.5t50.5 194.5v187q-35 -27 -129 -60.5t-117 -44.5q-90 -42 -90 -180z" />
<glyph unicode="b" horiz-adv-x="985" d="M106 0v1477h222v-494h4q67 160 250 160q154 0 237 -105q103 -131 103 -446.5t-86.5 -468t-274.5 -152.5q-105 0 -159 47t-83 119h-4v-137h-209zM315 520.5q0 -171.5 40 -271t147 -99.5q140 0 171 187q15 90 15 269.5t-38 269t-127.5 89.5t-133 -48t-59 -136.5t-15.5 -260 z" />
<glyph unicode="c" horiz-adv-x="909" d="M63 556.5q0 182.5 37 311.5q80 275 373 275q151 0 235 -65q144 -112 144 -335h-221q0 97 -35.5 165.5t-117.5 68.5t-123 -51t-55.5 -142t-14.5 -208t7.5 -191.5t27.5 -130.5q43 -117 153 -117q118 0 151 123q17 60 17 146h209q-8 -140 -46 -236q-77 -199 -331 -199 q-293 0 -373 273q-37 130 -37 312.5z" />
<glyph unicode="d" horiz-adv-x="985" d="M63 539.5q0 263.5 47.5 389.5t122 170t167 44t158 -43t95.5 -117h4v494h222v-1477h-209v137h-4q-27 -71 -82 -118.5t-160 -47.5q-188 0 -274.5 152.5t-86.5 416zM297 561q0 -208 29 -282.5t65 -101.5t92 -27q108 0 147.5 99t39.5 271t-16 260q-32 185 -185 185 q-95 0 -133.5 -90t-38.5 -314z" />
<glyph unicode="e" d="M76 504.5q0 201.5 32 335t122.5 218.5t246 85t241 -58t120 -167t34.5 -273v-117h-575v-65q0 -145 36.5 -241.5t143.5 -96.5t143.5 80t36.5 168h209q0 -184 -103 -293q-104 -109 -284 -109q-111 0 -198 39.5t-146 166t-59 328zM297 680h354v61q0 248 -170 248 q-66 0 -107 -39q-77 -73 -77 -248v-22z" />
<glyph unicode="f" horiz-adv-x="569" d="M20 948v164h154v105q0 152 68.5 214t212.5 62q72 0 120 -6v-172h-61q-62 0 -90.5 -25t-28.5 -80v-98h180v-164h-180v-948h-221v948h-154z" />
<glyph unicode="g" horiz-adv-x="985" d="M90 569q0 245 70.5 409.5t279.5 164.5q123 0 198 -85q33 -38 44 -81h4v135h209v-1059q0 -285 -175 -383q-92 -51 -240 -51t-228 49q-133 80 -133 238h209q0 -55 44 -94t122.5 -39t129 56t50.5 153v180h-4q-30 -73 -99.5 -113.5t-150.5 -40.5q-330 0 -330 561zM311 589 q0 -182 21.5 -258t57.5 -110.5t93 -34.5q115 0 153 112t38 282.5t-35.5 277.5t-143.5 107t-146 -97t-38 -279z" />
<glyph unicode="h" horiz-adv-x="985" d="M106 0v1477h222v-484l6 -4q62 97 165 135q51 19 105 19q134 0 204.5 -71t70.5 -232v-840h-222v764q0 140 -63 180q-33 21 -98 21t-116.5 -58t-51.5 -159v-748h-222z" />
<glyph unicode="i" horiz-adv-x="455" d="M117 0v1112h221v-1112h-221zM117 1270v223h221v-223h-221z" />
<glyph unicode="j" horiz-adv-x="455" d="M-49 -203h51q65 0 90 33t25 119v1163h221v-1184q0 -169 -70.5 -239t-220.5 -70q-46 0 -96 6v172zM117 1270v223h221v-223h-221z" />
<glyph unicode="k" d="M106 0v1477h222v-830h4l334 465l256 2l-332 -430l375 -684h-242l-270 506l-125 -152v-354h-222z" />
<glyph unicode="l" horiz-adv-x="455" d="M117 0v1477h221v-1477h-221z" />
<glyph unicode="m" horiz-adv-x="1516" d="M117 0v1112h209v-129h6q42 73 113.5 116.5t150.5 43.5q195 0 256 -170q52 85 117.5 127.5t175.5 42.5t182 -71t72 -226v-846h-221v764q0 106 -32 153.5t-103.5 47.5t-123 -58t-51.5 -159v-748h-221v764q0 106 -32 153.5t-103 47.5t-122.5 -58t-51.5 -159v-748h-221z" />
<glyph unicode="n" horiz-adv-x="985" d="M106 0v1112h209v-129h7q43 75 116.5 117.5t165.5 42.5q134 0 204.5 -71t70.5 -232v-840h-222v764q0 140 -63 180q-33 21 -98 21t-116.5 -58t-51.5 -159v-748h-222z" />
<glyph unicode="o" d="M63 559q0 180 37 309q80 275 373 275q297 0 375 -275q37 -129 37 -311q0 -586 -412 -586q-286 0 -370 276q-40 132 -40 312zM285 548q0 -145 14.5 -234t55 -133t119 -44t120 44.5t56 133t14.5 233.5t-15 235.5t-56.5 142t-119 51.5t-118.5 -51t-55.5 -142t-14.5 -236z " />
<glyph unicode="p" horiz-adv-x="985" d="M106 -365v1477h209v-135h4q79 166 255 166q348 0 348 -600q0 -217 -50 -345q-89 -227 -281.5 -227t-258.5 160h-4v-496h-222zM315 596.5q0 -167.5 15 -258.5q31 -188 174 -188q67 0 106 36q78 74 78 367q0 133 -15 224q-31 188 -171 188q-107 0 -147 -100.5t-40 -268z " />
<glyph unicode="q" horiz-adv-x="985" d="M63 535q0 303 86.5 455.5t274.5 152.5q106 0 160 -47t82 -119h4v135h209v-1477h-222v496h-4q-30 -76 -96 -118t-156 -42q-148 0 -243 130.5t-95 433.5zM297 510q0 -360 172 -360q153 0 185 183q16 88 16 260t-39.5 272t-147.5 100q-140 0 -171 -188q-15 -91 -15 -267z " />
<glyph unicode="r" horiz-adv-x="645" d="M106 0v1112h222v-172h4q81 203 256 203q30 0 53 -10v-228q-52 13 -92 13q-93 0 -157 -56t-64 -196v-666h-222z" />
<glyph unicode="s" horiz-adv-x="872" d="M57 317v41h197v-34q0 -134 72 -176q39 -23 114.5 -23t120.5 42.5t45 119.5q0 122 -121 164l-180 63q-88 32 -137 72q-98 78 -98 240.5t100.5 239.5t284 77t260 -89t76.5 -216v-50h-209v29q0 172 -146 172q-71 0 -114 -35.5t-43 -94.5t15 -87q25 -50 140 -92l141 -49 q167 -59 215 -171q25 -61 25 -162t-51 -178q-99 -149 -344 -149q-261 0 -330 156q-33 76 -33 190z" />
<glyph unicode="t" horiz-adv-x="569" d="M8 948v164h152v318h221v-318h180v-164h-180v-665q0 -84 41 -105q21 -12 65 -12t74 6v-166q-70 -18 -163.5 -18t-141.5 21q-96 41 -96 247v692h-152z" />
<glyph unicode="u" horiz-adv-x="985" d="M106 336v776h222v-797q0 -90 37.5 -127.5t112.5 -37.5t127 48t52 138v776h222v-1112h-209v131h-6q-42 -76 -116.5 -118t-164.5 -42t-150 33q-127 68 -127 332z" />
<glyph unicode="v" horiz-adv-x="872" d="M14 1112h238l192 -876h5l174 876h235l-291 -1112h-258z" />
<glyph unicode="w" horiz-adv-x="1403" d="M31 1112h229l154 -876h4l164 876h249l164 -876h4l152 876h221l-252 -1112h-248l-172 864h-4l-157 -864h-258z" />
<glyph unicode="x" horiz-adv-x="872" d="M6 0l301 578l-284 534h241l172 -367l180 367h238l-287 -534l299 -578h-239l-193 412l-192 -412h-236z" />
<glyph unicode="y" horiz-adv-x="872" d="M16 1112h238l190 -836h5l176 836h231l-303 -1153q-60 -218 -139 -283q-40 -33 -96 -45t-118 -12t-120 8v178q48 -8 91 -8q100 0 130 86l29 92z" />
<glyph unicode="z" horiz-adv-x="834" d="M51 0v174l481 750h-452v188h702v-184l-463 -740h463v-188h-731z" />
<glyph unicode="{" horiz-adv-x="569" d="M14 479v137q68 5 117 66.5t49 144.5v379q0 126 67.5 198.5t160.5 72.5h147v-127h-68q-55 0 -76.5 -37.5t-21.5 -106.5v-379q0 -127 -63.5 -194.5t-124.5 -81.5v-4q61 -14 124.5 -82.5t63.5 -196.5v-379q0 -68 21 -104.5t77 -36.5h68v-129h-147q-93 0 -160.5 73.5 t-67.5 196.5v379q0 53 -23 101.5t-62.5 78.5t-80.5 31z" />
<glyph unicode="|" horiz-adv-x="455" d="M139 -29v1534h176v-1534h-176z" />
<glyph unicode="}" horiz-adv-x="569" d="M14 -252h68q57 0 77.5 35.5t20.5 105.5v379q0 128 64 196.5t125 82.5v4q-61 14 -125 81.5t-64 194.5v379q0 71 -20.5 107.5t-77.5 36.5h-68v127h148q132 0 196 -125q31 -61 31 -146v-379q0 -81 49.5 -143.5t116.5 -67.5v-137q-67 -3 -116.5 -65.5t-49.5 -145.5v-379 q0 -125 -67 -197.5t-160 -72.5h-148v129z" />
<glyph unicode="~" horiz-adv-x="1229" d="M141 506q43 87 111.5 133.5t147.5 46.5t235 -76q27 -12 48.5 -22.5t60.5 -25.5q62 -23 90 -23q91 0 180 157l73 -155q-48 -85 -115.5 -133t-144.5 -48t-193 56.5t-162 74t-77 17.5q-93 0 -180 -158z" />
<glyph unicode="&#xa1;" horiz-adv-x="569" d="M168 104l35 611h164l34 -611v-469h-233v469zM168 877v235h233v-235h-233z" />
<glyph unicode="&#xa2;" horiz-adv-x="983" d="M98 556q0 267 81 418.5t280 168.5v153h90v-153q193 -13 264.5 -136t71.5 -264h-221q0 123 -46 187q-26 37 -69 47v-840q69 20 98 87t29 182h209q-11 -200 -87.5 -311t-248.5 -124v-182h-90v182q-200 17 -280.5 167.5t-80.5 417.5zM319 573q0 -98 6.5 -170t21.5 -125 q31 -111 112 -141v840q-104 -32 -129 -217q-11 -89 -11 -187z" />
<glyph unicode="&#xa3;" horiz-adv-x="983" d="M25 147l36 27q86 61 149.5 148t63.5 192q0 59 -36 137h-201v142h141l-35 71q-67 128 -67 227t48 183.5t144.5 137t223 52.5t209 -32t135.5 -89q98 -107 98 -280v-25h-221v23q0 130 -79 199q-45 38 -130.5 38t-140 -49t-54.5 -141t66 -221l47 -94h340v-142h-287 q21 -61 21 -121q0 -110 -63 -191.5t-177 -166.5l4 -8q76 47 150 47q44 0 103 -21q115 -40 165 -40t141 53l62 33l77 -164l-40 -25q-127 -76 -261 -76q-73 2 -158 31q-138 49 -204.5 49t-188.5 -63z" />
<glyph unicode="&#xa4;" horiz-adv-x="983" d="M12 326l105 104q-97 129 -97 289.5t97 286.5l-105 104l92 94l105 -106q127 96 282.5 96t282.5 -96l105 106l92 -94l-105 -106q97 -129 97 -287.5t-97 -284.5l105 -106l-92 -95l-107 109q-119 -98 -278.5 -98t-284.5 98l-105 -109zM184 717q0 -134 90 -228t218.5 -94 t217.5 94t89 228q0 88 -41 163t-112 117.5t-154.5 42.5t-154.5 -42.5t-112 -117.5t-41 -163z" />
<glyph unicode="&#xa5;" horiz-adv-x="983" d="M4 1436h254l234 -588l243 588h244l-301 -674h205v-141h-267l-22 -48v-98h289v-139h-289v-336h-221v336h-289v139h289v98l-21 48h-268v141h207z" />
<glyph unicode="&#xa6;" horiz-adv-x="455" d="M139 -29v574h176v-574h-176zM139 934v571h176v-571h-176z" />
<glyph unicode="&#xa7;" horiz-adv-x="985" d="M49 651q0 95 53 170.5t138 124.5q-131 76 -131 238q0 103 51 176q101 145 318.5 145t303.5 -97.5t86 -225.5h-221q0 76 -41.5 116.5t-114 40.5t-117 -37.5t-44.5 -90.5t36 -93.5t119 -87.5l277 -156q126 -70 158 -186q16 -54 16 -131.5t-44 -152t-120 -125.5 q117 -98 117 -240q0 -174 -107.5 -268.5t-292 -94.5t-285 103.5t-100.5 275.5h222q0 -90 42 -145t120.5 -55t122.5 41.5t44 113.5t-39.5 114t-111.5 81l-234 129q-221 122 -221 317zM246 678q0 -64 68 -114q35 -25 87 -56l234 -137l33 24q71 61 71 135t-34 114t-87 71 l-243 143l-27 -22q-102 -73 -102 -158z" />
<glyph unicode="&#xa8;" horiz-adv-x="455" d="M-41 1298v224h197v-224h-197zM299 1298v224h197v-224h-197z" />
<glyph unicode="&#xa9;" horiz-adv-x="1638" d="M59 739q0 318 223 543q221 223 537 223q156 0 294.5 -58.5t243.5 -164.5t163.5 -246t58.5 -297t-58.5 -296.5t-164.5 -246.5t-245.5 -166t-291.5 -59q-206 0 -381 103t-277 279t-102 386zM246 739q0 -250 168 -425q169 -177 406 -177q115 0 221.5 47t184.5 130 q167 176 167 425q0 122 -44.5 232.5t-123 193t-184.5 128.5t-221.5 46t-220 -45.5t-184.5 -128.5q-169 -175 -169 -426zM414 741q0 138 52.5 243.5t150 161.5t208.5 56t189 -37t129.5 -108.5t64.5 -171.5h-164q-16 73 -68.5 118.5t-133.5 45.5t-138 -41q-114 -82 -114 -267 q0 -136 68 -223.5t188 -87.5q77 0 132.5 47.5t65.5 126.5h170q-16 -98 -70 -174q-109 -154 -317 -154q-186 0 -298 126q-115 128 -115 339z" />
<glyph unicode="&#xaa;" horiz-adv-x="647" d="M16 935q0 81 21.5 124t61 63.5t106.5 38.5l106 27q50 12 71 29.5t21 56.5q0 76 -94 76q-108 0 -108 -105h-152q0 74 25 121q53 98 254 98q239 0 239 -164v-364q0 -21 9.5 -35t24 -14t30.5 4v-117q-3 0 -19 -4q-32 -10 -65 -10q-121 0 -127 96h-6q-63 -96 -197 -96 q-97 0 -149 47t-52 128zM193 963q0 -29 23.5 -52.5t71 -23.5t81.5 36t34 91v116q-18 -13 -82 -34t-77 -29q-51 -25 -51 -104z" />
<glyph unicode="&#xab;" horiz-adv-x="834" d="M102 479v236l295 280v-227l-180 -170l180 -170v-227zM436 479v236l295 280v-227l-180 -170l180 -170v-227z" />
<glyph unicode="&#xac;" horiz-adv-x="1229" d="M96 649v178h1037v-608h-177v430h-860z" />
<glyph unicode="&#xad;" horiz-adv-x="721" d="M92 492v210h537v-210h-537z" />
<glyph unicode="&#xae;" horiz-adv-x="1638" d="M59 739q0 318 223 543q221 223 537 223q156 0 294.5 -58.5t243.5 -164.5t163.5 -246t58.5 -297t-58.5 -296.5t-164.5 -246.5t-245.5 -166t-291.5 -59q-206 0 -381 103t-277 279t-102 386zM246 739q0 -250 168 -425q169 -177 406 -177q115 0 221.5 47t184.5 130 q167 176 167 425q0 122 -44.5 232.5t-123 193t-184.5 128.5t-221.5 46t-220 -45.5t-184.5 -128.5q-169 -175 -169 -426zM492 299v879h337q219 0 290 -110q36 -56 36 -144q0 -208 -223 -248l237 -377h-176l-221 371h-129v-371h-151zM643 799h156q98 0 151.5 24.5t53.5 108.5 q0 117 -193 117h-168v-250z" />
<glyph unicode="&#xaf;" horiz-adv-x="455" d="M-61 1350v127h577v-127h-577z" />
<glyph unicode="&#xb0;" horiz-adv-x="819" d="M104 1145.5q0 71.5 24 128.5t67 100q90 90 215 90q126 0 216 -90q89 -89 89 -217q0 -82 -40.5 -153.5t-111 -113.5t-153.5 -42t-153.5 42t-111.5 113t-41 142.5zM244 1156.5q0 -70.5 48.5 -119t117 -48.5t117 48.5t48.5 119t-48 118.5t-117.5 48t-117.5 -48t-48 -118.5z " />
<glyph unicode="&#xb1;" horiz-adv-x="1229" d="M96 0v178h1037v-178h-1037zM96 557v178h430v312h176v-312h431v-178h-431v-313h-176v313h-430z" />
<glyph unicode="&#xb2;" horiz-adv-x="641" d="M33 580q0 139 52.5 223.5t160 168t146 124t38.5 108.5q0 131 -104 131q-64 0 -89.5 -47.5t-25.5 -107.5h-176q0 284 285.5 284t285.5 -235q0 -95 -42 -158t-103.5 -110.5t-138.5 -111.5t-103 -130h379v-139h-565z" />
<glyph unicode="&#xb3;" horiz-adv-x="641" d="M20 827h177q0 -47 29 -91t91.5 -44t94.5 42.5t32 105.5q0 135 -145 135h-61v127h55q65 0 97 36.5t32 82.5t-26 80t-79 34t-79.5 -39t-26.5 -86h-176q0 124 80 189t217 65q153 0 228 -98q38 -50 38 -121.5t-48 -129.5t-116 -68v-5q81 -5 134 -59t53 -145 q0 -127 -84.5 -200t-201.5 -73t-183 27q-132 54 -132 235z" />
<glyph unicode="&#xb4;" horiz-adv-x="455" d="M115 1257l123 299h245l-217 -299h-151z" />
<glyph unicode="&#xb5;" horiz-adv-x="985" d="M106 -365v1477h222v-762q0 -107 35.5 -153.5t112.5 -46.5t129 56.5t52 160.5v745h222v-1112h-209v131h-6q-42 -76 -104 -118t-128.5 -42t-103.5 37v-373h-222z" />
<glyph unicode="&#xb6;" horiz-adv-x="1229" d="M109 1101.5q0 121.5 59 208.5q113 167 418 167h508v-1770h-187v1628h-227v-1628h-186v1004q-103 0 -192 49t-141 134.5t-52 207z" />
<glyph unicode="&#xb8;" horiz-adv-x="455" d="M10 -412l33 82q71 -26 135 -26q115 0 115 80q0 35 -26.5 56t-59.5 21t-86 -16l-37 35l113 180h102l-84 -119q52 10 88.5 10t74.5 -20q79 -42 79 -128.5t-67.5 -137.5t-177 -51t-202.5 34z" />
<glyph unicode="&#xb9;" horiz-adv-x="641" d="M82 1210v115h14q192 0 223 123v16h123v-884h-176v630h-184z" />
<glyph unicode="&#xba;" horiz-adv-x="647" d="M29 1111q0 171 66 262t228.5 91t228.5 -91t66 -262t-66 -261t-228.5 -90t-228.5 90t-66 261zM205 1131q0 -125 25 -184.5t94 -59.5t93.5 58t24.5 165t-24 166t-83 59t-85 -29q-45 -50 -45 -175z" />
<glyph unicode="&#xbb;" horiz-adv-x="834" d="M102 201v227l181 170l-181 170v227l295 -280v-236zM436 201v227l180 170l-180 170v227l295 -280v-236z" />
<glyph unicode="&#xbc;" horiz-adv-x="1477" d="M20 1210v115h15q190 0 223 123v16h123v-884h-176v630h-185zM152 -63l862 1562h151l-862 -1562h-151zM780 195v127l324 563h176v-574h102v-116h-102v-195h-164v195h-336zM901 311h215v375h-4z" />
<glyph unicode="&#xbd;" horiz-adv-x="1477" d="M20 1210v115h15q190 0 223 123v16h123v-884h-176v630h-185zM152 -63l862 1562h151l-862 -1562h-151zM842 0q0 139 52.5 223.5t160 168t146 124t38.5 121.5q0 75 -47 106q-22 15 -57 15q-65 0 -90 -48t-25 -110h-176q0 285 285.5 285t285.5 -236q0 -119 -52.5 -176.5 t-177.5 -154t-157 -177.5h379v-141h-565z" />
<glyph unicode="&#xbe;" horiz-adv-x="1477" d="M-33 827h176q0 -47 29.5 -91t92.5 -44t94.5 42.5t31.5 105.5q0 135 -145 135h-62v127h56q65 0 97 36.5t32 82.5t-26 80t-79.5 34t-79.5 -39.5t-26 -85.5h-176q0 124 79 189t218 65q153 0 227 -98q39 -50 39 -121.5t-48 -129.5t-116 -68v-5q81 -5 133.5 -59t52.5 -145 q0 -127 -84.5 -200t-201 -73t-182.5 27q-132 54 -132 235zM221 -63l862 1562h152l-862 -1562h-152zM780 195v127l324 563h176v-574h102v-116h-102v-195h-164v195h-336zM901 311h215v375h-4z" />
<glyph unicode="&#xbf;" d="M72 0.5q0 122.5 42.5 206t126.5 171.5t118 135t34 116v86h209v-123q0 -100 -37 -161t-111.5 -133.5t-111.5 -134t-37 -159.5q0 -219 166 -219q100 0 142 75.5t42 215.5h222q0 -211 -97 -340t-307 -129q-258 0 -354 182q-47 89 -47 211.5zM383 877v235h233v-235h-233z" />
<glyph unicode="&#xc0;" horiz-adv-x="1063" d="M-18 0l415 1477h299l385 -1477h-243l-90 362h-429l-94 -362h-243zM291 1858h246l122 -299h-151zM362 551h347l-168 727h-4z" />
<glyph unicode="&#xc1;" horiz-adv-x="1063" d="M-18 0l415 1477h299l385 -1477h-243l-90 362h-429l-94 -362h-243zM362 551h347l-168 727h-4zM434 1559l123 299h246l-217 -299h-152z" />
<glyph unicode="&#xc2;" horiz-adv-x="1063" d="M-18 0l415 1477h299l385 -1477h-243l-90 362h-429l-94 -362h-243zM252 1559l186 299h221l183 -299h-187l-110 182l-117 -182h-176zM362 551h347l-168 727h-4z" />
<glyph unicode="&#xc3;" horiz-adv-x="1063" d="M-18 0l415 1477h299l385 -1477h-243l-90 362h-429l-94 -362h-243zM238 1573q0 85 52 166.5t154 81.5q25 0 109 -35q76 -37 115 -37q61 0 61 78h127q0 -46 -21 -105.5t-61 -99t-82 -39.5t-74 10t-70 27q-81 37 -113.5 37t-51 -24.5t-18.5 -59.5h-127zM362 551h347 l-168 727h-4z" />
<glyph unicode="&#xc4;" horiz-adv-x="1063" d="M-18 0l415 1477h299l385 -1477h-243l-90 362h-429l-94 -362h-243zM279 1599v224h196v-224h-196zM362 551h347l-168 727h-4zM618 1599v224h197v-224h-197z" />
<glyph unicode="&#xc5;" horiz-adv-x="1063" d="M-18 0l415 1477h299l385 -1477h-243l-90 362h-429l-94 -362h-243zM330 1747q0 91 63 155t154 64t154 -64t63 -155t-63 -155t-154 -64t-154 64t-63 155zM362 551h347l-168 727h-4zM432 1746.5q0 -46.5 34 -80.5t80.5 -34t81 33.5t34.5 73t-16 65.5q-33 58 -90 58 t-90.5 -34.5t-33.5 -81z" />
<glyph unicode="&#xc6;" horiz-adv-x="1518" d="M-25 0l560 1477h895v-199h-519v-410h490v-198h-490v-471h537v-199h-758v362h-342l-129 -362h-244zM410 551h280v737h-18z" />
<glyph unicode="&#xc7;" horiz-adv-x="1063" d="M86 739q0 269 45 437t150.5 248.5t289.5 80.5q272 0 356.5 -140t84.5 -323v-26h-234v24q0 123 -46.5 205t-150 82t-157.5 -48q-105 -95 -105 -534q0 -444 106 -544q54 -51 144 -51q129 0 173 105t44 249v26h234v-32q0 -304 -171 -443q-92 -75 -241 -84l-63 -90 q50 10 87.5 10t75.5 -21q78 -42 78 -130q0 -113 -118 -163q-54 -23 -144.5 -23t-183.5 34l33 82q71 -26 135 -26q115 0 115 80q0 35 -26.5 56t-59.5 21t-86 -16l-37 35l96 151q-238 24 -332 209q-92 181 -92 559z" />
<glyph unicode="&#xc8;" horiz-adv-x="985" d="M121 0v1477h790v-199h-557v-410h525v-198h-525v-471h574v-199h-807zM262 1858h246l123 -299h-152z" />
<glyph unicode="&#xc9;" horiz-adv-x="985" d="M121 0v1477h790v-199h-557v-410h525v-198h-525v-471h574v-199h-807zM406 1559l122 299h246l-217 -299h-151z" />
<glyph unicode="&#xca;" horiz-adv-x="985" d="M121 0v1477h790v-199h-557v-410h525v-198h-525v-471h574v-199h-807zM223 1559l187 299h221l182 -299h-186l-111 182l-117 -182h-176z" />
<glyph unicode="&#xcb;" horiz-adv-x="985" d="M121 0v1477h790v-199h-557v-410h525v-198h-525v-471h574v-199h-807zM250 1599v224h196v-224h-196zM590 1599v224h196v-224h-196z" />
<glyph unicode="&#xcc;" horiz-adv-x="455" d="M-29 1858h246l123 -299h-152zM111 0v1477h233v-1477h-233z" />
<glyph unicode="&#xcd;" horiz-adv-x="455" d="M111 0v1477h233v-1477h-233zM115 1559l123 299h245l-217 -299h-151z" />
<glyph unicode="&#xce;" horiz-adv-x="455" d="M-68 1559l187 299h221l182 -299h-186l-111 182l-116 -182h-177zM111 0v1477h233v-1477h-233z" />
<glyph unicode="&#xcf;" horiz-adv-x="455" d="M-41 1599v224h197v-224h-197zM111 0v1477h233v-1477h-233zM299 1599v224h197v-224h-197z" />
<glyph unicode="&#xd0;" horiz-adv-x="1139" d="M0 688v166h121v623h416q317 0 427 -201q54 -97 71.5 -222.5t17.5 -314.5t-17.5 -315.5t-71.5 -223.5q-111 -200 -427 -200h-416v688h-121zM354 178h193q99 0 158 51q114 99 114 510q0 406 -111 506q-59 53 -161 53h-193v-444h244v-166h-244v-510z" />
<glyph unicode="&#xd1;" horiz-adv-x="1176" d="M121 0v1477h285l423 -1100h5v1100h221v-1477h-285l-424 1128h-4v-1128h-221zM279 1573q0 85 52 166.5t154 81.5q25 0 109 -35q76 -37 115 -37q61 0 61 78h127q0 -46 -21 -105.5t-61 -99t-82 -39.5t-74 10t-69 27q-82 37 -114.5 37t-51 -24.5t-18.5 -59.5h-127z" />
<glyph unicode="&#xd2;" horiz-adv-x="1139" d="M86 739q0 397 116 581q116 185 367 185q253 0 369 -185q115 -183 115 -581t-115 -582q-118 -186 -369 -186t-367 187q-116 184 -116 581zM313 1858h246l123 -299h-152zM319 745q0 -491 150 -571q44 -24 112 -24t121 46q117 100 117 549q0 439 -117 537q-54 45 -122.5 45 t-112 -23.5t-77.5 -85.5q-71 -131 -71 -473z" />
<glyph unicode="&#xd3;" horiz-adv-x="1139" d="M86 739q0 397 116 581q116 185 367 185q253 0 369 -185q115 -183 115 -581t-115 -582q-118 -186 -369 -186t-367 187q-116 184 -116 581zM319 745q0 -491 150 -571q44 -24 112 -24t121 46q117 100 117 549q0 439 -117 537q-54 45 -122.5 45t-112 -23.5t-77.5 -85.5 q-71 -131 -71 -473zM457 1559l123 299h245l-217 -299h-151z" />
<glyph unicode="&#xd4;" horiz-adv-x="1139" d="M86 739q0 397 116 581q116 185 367 185q253 0 369 -185q115 -183 115 -581t-115 -582q-118 -186 -369 -186t-367 187q-116 184 -116 581zM274 1559l187 299h221l182 -299h-186l-111 182l-116 -182h-177zM319 745q0 -491 150 -571q44 -24 112 -24t121 46q117 100 117 549 q0 439 -117 537q-54 45 -122.5 45t-112 -23.5t-77.5 -85.5q-71 -131 -71 -473z" />
<glyph unicode="&#xd5;" horiz-adv-x="1139" d="M86 739q0 397 116 581q116 185 367 185q253 0 369 -185q115 -183 115 -581t-115 -582q-118 -186 -369 -186t-367 187q-116 184 -116 581zM260 1573q0 85 52 166.5t155 81.5q26 0 108 -35q76 -37 111 -37q66 0 66 78h127q0 -48 -21 -106t-62 -98t-82.5 -40t-73.5 10 t-70 27q-81 37 -113 37t-51 -24.5t-19 -59.5h-127zM319 745q0 -491 150 -571q44 -24 112 -24t121 46q117 100 117 549q0 439 -117 537q-54 45 -122.5 45t-112 -23.5t-77.5 -85.5q-71 -131 -71 -473z" />
<glyph unicode="&#xd6;" horiz-adv-x="1139" d="M86 739q0 397 116 581q116 185 367 185q253 0 369 -185q115 -183 115 -581t-115 -582q-118 -186 -369 -186t-367 187q-116 184 -116 581zM301 1599v224h197v-224h-197zM319 745q0 -491 150 -571q44 -24 112 -24t121 46q117 100 117 549q0 439 -117 537q-54 45 -122.5 45 t-112 -23.5t-77.5 -85.5q-71 -131 -71 -473zM641 1599v224h197v-224h-197z" />
<glyph unicode="&#xd7;" horiz-adv-x="1229" d="M143 164l357 360l-357 359l115 116l354 -360l359 360l114 -116l-358 -359l358 -360l-114 -117l-359 363l-354 -363z" />
<glyph unicode="&#xd8;" horiz-adv-x="1139" d="M86 739q0 397 116 581q116 185 367 185q140 0 236 -57l55 135l105 -51l-68 -158q156 -180 156 -635q0 -398 -115 -582q-118 -186 -369 -186q-139 0 -233 58l-57 -138l-105 52l68 161q-156 180 -156 635zM319 745q0 -232 33 -374h4l369 884q-51 72 -156 72 q-58 0 -101.5 -23.5t-77.5 -85.5q-71 -131 -71 -473zM416 221q51 -71 142 -71t144 46q117 100 117 549q0 230 -31 361h-4z" />
<glyph unicode="&#xd9;" horiz-adv-x="1100" d="M102 436v1041h234v-1059q0 -268 214 -268t214 268v1059h233v-1041q0 -247 -113.5 -356t-332.5 -109q-297 0 -397 195q-52 104 -52 270zM295 1858h246l123 -299h-152z" />
<glyph unicode="&#xda;" horiz-adv-x="1100" d="M102 436v1041h234v-1059q0 -268 214 -268t214 268v1059h233v-1041q0 -247 -113.5 -356t-332.5 -109q-297 0 -397 195q-52 104 -52 270zM438 1559l123 299h246l-217 -299h-152z" />
<glyph unicode="&#xdb;" horiz-adv-x="1100" d="M102 436v1041h234v-1059q0 -268 214 -268t214 268v1059h233v-1041q0 -247 -113.5 -356t-332.5 -109q-297 0 -397 195q-52 104 -52 270zM256 1559l186 299h222l182 -299h-187l-110 182l-117 -182h-176z" />
<glyph unicode="&#xdc;" horiz-adv-x="1100" d="M102 436v1041h234v-1059q0 -268 214 -268t214 268v1059h233v-1041q0 -247 -113.5 -356t-332.5 -109q-297 0 -397 195q-52 104 -52 270zM283 1599v224h196v-224h-196zM623 1599v224h196v-224h-196z" />
<glyph unicode="&#xdd;" horiz-adv-x="985" d="M-8 1477h260l246 -637l252 637h243l-391 -899v-578h-233v578zM381 1559l123 299h246l-218 -299h-151z" />
<glyph unicode="&#xde;" horiz-adv-x="1024" d="M121 0v1477h233v-281h230q270 0 360 -205q43 -98 43 -225q0 -202 -112 -319t-316 -117h-205v-330h-233zM354 506h166q103 0 168.5 62.5t65.5 190.5t-57.5 193.5t-192.5 65.5h-150v-512z" />
<glyph unicode="&#xdf;" horiz-adv-x="985" d="M90 0v1102q0 391 385 391q163 0 273 -77.5t110 -260.5q0 -125 -48.5 -202t-156.5 -105v-4q100 -10 160 -66q109 -103 109 -319q0 -297 -170 -411q-88 -60 -220 -60h-104v178h55q205 0 205 293t-203 293h-53v163h39q55 0 110.5 48.5t55.5 154.5q0 209 -164 209 q-85 0 -123.5 -52.5t-38.5 -156.5v-1118h-221z" />
<glyph unicode="&#xe0;" d="M63 289.5q0 111.5 31.5 179.5t85 102t139.5 62l173 47q89 23 114 70q15 28 15 91t-34 105.5t-125.5 42.5t-126 -57t-34.5 -156h-209q0 185 88.5 276t298.5 91q158 0 254 -67.5t96 -207.5v-637q0 -32 16.5 -54.5t40.5 -22.5t38 6v-146q-58 -26 -109 -26q-178 0 -186 147 h-4q-89 -164 -275 -164q-184 0 -252 137q-35 70 -35 181.5zM219 1556h246l123 -299h-152zM285 303q0 -73 36 -119.5t101 -46.5q98 0 148.5 69.5t50.5 194.5v187q-35 -27 -129 -60.5t-117 -44.5q-90 -42 -90 -180z" />
<glyph unicode="&#xe1;" d="M63 289.5q0 111.5 31.5 179.5t85 102t139.5 62l173 47q89 23 114 70q15 28 15 91t-34 105.5t-125.5 42.5t-126 -57t-34.5 -156h-209q0 185 88.5 276t298.5 91q158 0 254 -67.5t96 -207.5v-637q0 -32 16.5 -54.5t40.5 -22.5t38 6v-146q-58 -26 -109 -26q-178 0 -186 147 h-4q-89 -164 -275 -164q-184 0 -252 137q-35 70 -35 181.5zM285 303q0 -73 36 -119.5t101 -46.5q98 0 148.5 69.5t50.5 194.5v187q-35 -27 -129 -60.5t-117 -44.5q-90 -42 -90 -180zM362 1257l123 299h246l-217 -299h-152z" />
<glyph unicode="&#xe2;" d="M63 289.5q0 111.5 31.5 179.5t85 102t139.5 62l173 47q89 23 114 70q15 28 15 91t-34 105.5t-125.5 42.5t-126 -57t-34.5 -156h-209q0 185 88.5 276t298.5 91q158 0 254 -67.5t96 -207.5v-637q0 -32 16.5 -54.5t40.5 -22.5t38 6v-146q-58 -26 -109 -26q-178 0 -186 147 h-4q-89 -164 -275 -164q-184 0 -252 137q-35 70 -35 181.5zM180 1257l187 299h221l182 -299h-186l-111 183l-117 -183h-176zM285 303q0 -73 36 -119.5t101 -46.5q98 0 148.5 69.5t50.5 194.5v187q-35 -27 -129 -60.5t-117 -44.5q-90 -42 -90 -180z" />
<glyph unicode="&#xe3;" d="M63 289.5q0 111.5 31.5 179.5t85 102t139.5 62l173 47q89 23 114 70q15 28 15 91t-34 105.5t-125.5 42.5t-126 -57t-34.5 -156h-209q0 185 88.5 276t298.5 91q158 0 254 -67.5t96 -207.5v-637q0 -32 16.5 -54.5t40.5 -22.5t38 6v-146q-58 -26 -109 -26q-178 0 -186 147 h-4q-89 -164 -275 -164q-184 0 -252 137q-35 70 -35 181.5zM166 1272q0 85 52 166.5t155 81.5q26 0 108 -35q76 -37 115 -37q61 0 61 78h127q0 -46 -21 -105.5t-61 -99t-82 -39.5t-74 10t-70 27q-81 37 -113.5 37t-51 -24.5t-18.5 -59.5h-127zM285 303q0 -73 36 -119.5 t101 -46.5q98 0 148.5 69.5t50.5 194.5v187q-35 -27 -129 -60.5t-117 -44.5q-90 -42 -90 -180z" />
<glyph unicode="&#xe4;" d="M63 289.5q0 111.5 31.5 179.5t85 102t139.5 62l173 47q89 23 114 70q15 28 15 91t-34 105.5t-125.5 42.5t-126 -57t-34.5 -156h-209q0 185 88.5 276t298.5 91q158 0 254 -67.5t96 -207.5v-637q0 -32 16.5 -54.5t40.5 -22.5t38 6v-146q-58 -26 -109 -26q-178 0 -186 147 h-4q-89 -164 -275 -164q-184 0 -252 137q-35 70 -35 181.5zM207 1298v224h196v-224h-196zM285 303q0 -73 36 -119.5t101 -46.5q98 0 148.5 69.5t50.5 194.5v187q-35 -27 -129 -60.5t-117 -44.5q-90 -42 -90 -180zM547 1298v224h196v-224h-196z" />
<glyph unicode="&#xe5;" d="M63 289.5q0 111.5 31.5 179.5t85 102t139.5 62l173 47q89 23 114 70q15 28 15 91t-34 105.5t-125.5 42.5t-126 -57t-34.5 -156h-209q0 185 88.5 276t298.5 91q158 0 254 -67.5t96 -207.5v-637q0 -32 16.5 -54.5t40.5 -22.5t38 6v-146q-58 -26 -109 -26q-178 0 -186 147 h-4q-89 -164 -275 -164q-184 0 -252 137q-35 70 -35 181.5zM258 1446q0 91 63 155t154 64t154 -64t63 -155t-63 -155t-154 -64t-154 64t-63 155zM285 303q0 -73 36 -119.5t101 -46.5q98 0 148.5 69.5t50.5 194.5v187q-35 -27 -129 -60.5t-117 -44.5q-90 -42 -90 -180z M360 1445.5q0 -47.5 34.5 -81t81.5 -33.5t80.5 33.5t33.5 72.5t-15 65q-33 59 -90 59t-91 -34t-34 -81.5z" />
<glyph unicode="&#xe6;" horiz-adv-x="1442" d="M63 287q0 159 69.5 231.5t203.5 106.5l174 45q56 14 75 43t19 110q0 166 -135 166q-99 0 -133.5 -57t-34.5 -156h-209q0 185 88.5 276t298.5 91q118 0 178 -46.5t80 -97.5q39 67 110 104.5t182.5 38.5t191 -57.5t112.5 -167.5t33 -272v-117h-551v-79q0 -141 36 -230.5 t126 -93.5q103 0 139.5 80t36.5 168h209q0 -184 -103 -293q-104 -109 -284 -109q-141 3 -203 61.5t-98 141.5q-42 -98 -120.5 -150.5t-194.5 -52.5t-206 78.5t-90 237.5zM285 290q0 -61 35.5 -107t93.5 -46q192 0 192 258v176q-24 -28 -127.5 -57.5t-138.5 -59t-45 -66.5 t-10 -98zM817 680h328v61q0 248 -160 248q-87 0 -127.5 -84t-40.5 -176v-49z" />
<glyph unicode="&#xe7;" horiz-adv-x="909" d="M63 560.5q0 178.5 37 307.5q80 275 373 275q151 0 235 -65q144 -112 144 -335h-221q0 97 -35.5 165.5t-117.5 68.5t-123 -51t-55.5 -142t-14.5 -208t7.5 -191.5t27.5 -130.5q43 -117 153 -117q118 0 151 123q17 60 17 146h209q-12 -262 -138 -363q-68 -54 -177 -66 l-68 -96q50 10 87.5 10t75.5 -20q79 -42 79 -128.5t-67.5 -137.5t-177 -51t-202.5 34l33 82q71 -26 135 -26q115 0 115 80q0 35 -26.5 56t-59.5 21t-86 -16l-37 35l96 155q-263 17 -335 281q-34 126 -34 304.5z" />
<glyph unicode="&#xe8;" d="M76 504.5q0 201.5 32 335t122.5 218.5t246 85t241 -58t120 -167t34.5 -273v-117h-575v-65q0 -145 36.5 -241.5t143.5 -96.5t143.5 80t36.5 168h209q0 -184 -103 -293q-104 -109 -284 -109q-111 0 -198 39.5t-146 166t-59 328zM244 1556h245l123 -299h-151zM297 680h354 v61q0 248 -170 248q-66 0 -107 -39q-77 -73 -77 -248v-22z" />
<glyph unicode="&#xe9;" d="M76 504.5q0 201.5 32 335t122.5 218.5t246 85t241 -58t120 -167t34.5 -273v-117h-575v-65q0 -145 36.5 -241.5t143.5 -96.5t143.5 80t36.5 168h209q0 -184 -103 -293q-104 -109 -284 -109q-111 0 -198 39.5t-146 166t-59 328zM297 680h354v61q0 248 -170 248 q-66 0 -107 -39q-77 -73 -77 -248v-22zM387 1257l123 299h246l-217 -299h-152z" />
<glyph unicode="&#xea;" d="M76 504.5q0 201.5 32 335t122.5 218.5t246 85t241 -58t120 -167t34.5 -273v-117h-575v-65q0 -145 36.5 -241.5t143.5 -96.5t143.5 80t36.5 168h209q0 -184 -103 -293q-104 -109 -284 -109q-111 0 -198 39.5t-146 166t-59 328zM205 1257l186 299h221l183 -299h-187 l-110 183l-117 -183h-176zM297 680h354v61q0 248 -170 248q-66 0 -107 -39q-77 -73 -77 -248v-22z" />
<glyph unicode="&#xeb;" d="M76 504.5q0 201.5 32 335t122.5 218.5t246 85t241 -58t120 -167t34.5 -273v-117h-575v-65q0 -145 36.5 -241.5t143.5 -96.5t143.5 80t36.5 168h209q0 -184 -103 -293q-104 -109 -284 -109q-111 0 -198 39.5t-146 166t-59 328zM231 1298v224h197v-224h-197zM297 680h354 v61q0 248 -170 248q-66 0 -107 -39q-77 -73 -77 -248v-22zM571 1298v224h197v-224h-197z" />
<glyph unicode="&#xec;" horiz-adv-x="455" d="M-29 1556h246l123 -299h-152zM117 0v1112h221v-1112h-221z" />
<glyph unicode="&#xed;" horiz-adv-x="455" d="M115 1257l123 299h245l-217 -299h-151zM117 0v1112h221v-1112h-221z" />
<glyph unicode="&#xee;" horiz-adv-x="455" d="M-68 1257l187 299h221l182 -299h-186l-111 183l-116 -183h-177zM117 0v1112h221v-1112h-221z" />
<glyph unicode="&#xef;" horiz-adv-x="455" d="M-41 1298v224h197v-224h-197zM117 0v1112h221v-1112h-221zM299 1298v224h197v-224h-197z" />
<glyph unicode="&#xf0;" d="M63 530.5q0 151.5 21 253.5t68 176q96 152 288 152q107 0 168 -68l4 5q-92 141 -241 286l-178 -98l-74 74l176 98q-70 67 -131 107l162 90q42 -26 135 -107l186 103l66 -76l-176 -96q135 -131 210.5 -255t106.5 -270.5t31 -347.5q0 -586 -412 -586q-286 0 -370 276 q-40 132 -40 283.5zM285 541q0 -138 14.5 -227t55 -133t119 -44t120 44.5t56 133t14.5 226.5t-15 223q-33 184 -176 184q-142 0 -173 -184q-15 -85 -15 -223z" />
<glyph unicode="&#xf1;" horiz-adv-x="985" d="M106 0v1112h209v-129h7q43 75 116.5 117.5t165.5 42.5q134 0 204.5 -71t70.5 -232v-840h-222v764q0 140 -63 180q-33 21 -98 21t-116.5 -58t-51.5 -159v-748h-222zM184 1272q0 51 22 109t68 98.5t117 40.5q25 0 109 -35q76 -37 114 -37q62 0 62 78h127q0 -48 -21 -106 t-61 -98t-82 -40t-74 10t-70 27q-83 37 -114.5 37t-50.5 -24.5t-19 -59.5h-127z" />
<glyph unicode="&#xf2;" d="M63 559q0 180 37 309q80 275 373 275q297 0 375 -275q37 -129 37 -311q0 -586 -412 -586q-286 0 -370 276q-40 132 -40 312zM219 1556h246l123 -299h-152zM285 548q0 -145 14.5 -234t55 -133t119 -44t120 44.5t56 133t14.5 233.5t-15 235.5t-56.5 142t-119 51.5 t-118.5 -51t-55.5 -142t-14.5 -236z" />
<glyph unicode="&#xf3;" d="M63 559q0 180 37 309q80 275 373 275q297 0 375 -275q37 -129 37 -311q0 -586 -412 -586q-286 0 -370 276q-40 132 -40 312zM285 548q0 -145 14.5 -234t55 -133t119 -44t120 44.5t56 133t14.5 233.5t-15 235.5t-56.5 142t-119 51.5t-118.5 -51t-55.5 -142t-14.5 -236z M362 1257l123 299h246l-217 -299h-152z" />
<glyph unicode="&#xf4;" d="M63 559q0 180 37 309q80 275 373 275q297 0 375 -275q37 -129 37 -311q0 -586 -412 -586q-286 0 -370 276q-40 132 -40 312zM180 1257l187 299h221l182 -299h-186l-111 183l-117 -183h-176zM285 548q0 -145 14.5 -234t55 -133t119 -44t120 44.5t56 133t14.5 233.5 t-15 235.5t-56.5 142t-119 51.5t-118.5 -51t-55.5 -142t-14.5 -236z" />
<glyph unicode="&#xf5;" d="M63 559q0 180 37 309q80 275 373 275q297 0 375 -275q37 -129 37 -311q0 -586 -412 -586q-286 0 -370 276q-40 132 -40 312zM166 1272q0 85 52 166.5t155 81.5q26 0 108 -35q76 -37 115 -37q61 0 61 78h127q0 -46 -21 -105.5t-61 -99t-82 -39.5t-74 10t-70 27 q-81 37 -113.5 37t-51 -24.5t-18.5 -59.5h-127zM285 548q0 -145 14.5 -234t55 -133t119 -44t120 44.5t56 133t14.5 233.5t-15 235.5t-56.5 142t-119 51.5t-118.5 -51t-55.5 -142t-14.5 -236z" />
<glyph unicode="&#xf6;" d="M63 559q0 180 37 309q80 275 373 275q297 0 375 -275q37 -129 37 -311q0 -586 -412 -586q-286 0 -370 276q-40 132 -40 312zM207 1298v224h196v-224h-196zM285 548q0 -145 14.5 -234t55 -133t119 -44t120 44.5t56 133t14.5 233.5t-15 235.5t-56.5 142t-119 51.5 t-118.5 -51t-55.5 -142t-14.5 -236zM547 1298v224h196v-224h-196z" />
<glyph unicode="&#xf7;" horiz-adv-x="1229" d="M96 434v178h1037v-178h-1037zM467 98.5q0 63.5 42 106.5t104.5 43t105.5 -43t43 -106.5t-43 -105.5t-105.5 -42t-104.5 42t-42 105.5zM467 947.5q0 62.5 42 105.5t104.5 43t105.5 -43t43 -105.5t-43 -105.5t-105.5 -43t-104.5 43t-42 105.5z" />
<glyph unicode="&#xf8;" d="M63 557q0 182 37 311q80 275 373 275q105 0 191 -43l61 135l98 -53l-67 -146q129 -129 129 -479q0 -283 -92.5 -434.5t-319.5 -151.5q-110 0 -190 39l-64 -139l-98 55l72 152q-130 132 -130 479zM285 557q0 -136 14 -240h4l283 615q-45 45 -117.5 45t-113.5 -51 t-55.5 -142t-14.5 -227zM362 182q43 -45 106.5 -45t102 31t58.5 86q35 95 35 272t-17 273h-4z" />
<glyph unicode="&#xf9;" horiz-adv-x="985" d="M106 336v776h222v-797q0 -90 37.5 -127.5t112.5 -37.5t127 48t52 138v776h222v-1112h-209v131h-6q-42 -76 -116.5 -118t-164.5 -42t-150 33q-127 68 -127 332zM238 1556h245l123 -299h-151z" />
<glyph unicode="&#xfa;" horiz-adv-x="985" d="M106 336v776h222v-797q0 -90 37.5 -127.5t112.5 -37.5t127 48t52 138v776h222v-1112h-209v131h-6q-42 -76 -116.5 -118t-164.5 -42t-150 33q-127 68 -127 332zM381 1257l123 299h246l-218 -299h-151z" />
<glyph unicode="&#xfb;" horiz-adv-x="985" d="M106 336v776h222v-797q0 -90 37.5 -127.5t112.5 -37.5t127 48t52 138v776h222v-1112h-209v131h-6q-42 -76 -116.5 -118t-164.5 -42t-150 33q-127 68 -127 332zM199 1257l186 299h221l182 -299h-186l-110 183l-117 -183h-176z" />
<glyph unicode="&#xfc;" horiz-adv-x="985" d="M106 336v776h222v-797q0 -90 37.5 -127.5t112.5 -37.5t127 48t52 138v776h222v-1112h-209v131h-6q-42 -76 -116.5 -118t-164.5 -42t-150 33q-127 68 -127 332zM225 1298v224h197v-224h-197zM565 1298v224h197v-224h-197z" />
<glyph unicode="&#xfd;" horiz-adv-x="872" d="M16 1112h238l190 -836h5l176 836h231l-303 -1153q-60 -218 -139 -283q-40 -33 -96 -45t-118 -12t-120 8v178q48 -8 91 -8q100 0 130 86l29 92zM324 1257l122 299h246l-217 -299h-151z" />
<glyph unicode="&#xfe;" horiz-adv-x="985" d="M106 -365v1842h222v-494h4q67 160 250 160q340 0 340 -600q0 -217 -50 -345q-89 -227 -281.5 -227t-258.5 160h-4v-496h-222zM315 596.5q0 -167.5 15 -258.5q31 -188 174 -188q67 0 106 36q78 74 78 367q0 133 -15 224q-31 188 -171 188q-107 0 -147 -100.5t-40 -268z " />
<glyph unicode="&#xff;" horiz-adv-x="872" d="M16 1112h238l190 -836h5l176 836h231l-303 -1153q-60 -218 -139 -283q-40 -33 -96 -45t-118 -12t-120 8v178q48 -8 91 -8q100 0 130 86l29 92zM168 1298v224h197v-224h-197zM508 1298v224h197v-224h-197z" />
<glyph unicode="&#x152;" horiz-adv-x="1630" d="M86 739q0 393 111.5 579.5t343.5 186.5q196 0 274 -119h4v91h725v-199h-520v-410h487v-198h-487v-471h537v-199h-742v106h-4q-81 -135 -283 -135q-152 0 -250 81q-196 159 -196 687zM319 745q0 -491 150 -571q44 -24 109.5 -24t116.5 27q108 57 108 310v502 q0 250 -103 311q-46 27 -112.5 27t-113 -23t-81.5 -85q-74 -131 -74 -474z" />
<glyph unicode="&#x153;" horiz-adv-x="1479" d="M63 581.5q0 157.5 37 286.5q78 275 365 275q134 0 198 -48t105 -122q53 89 120.5 129.5t184.5 40.5t196.5 -58.5t112.5 -167.5t33 -272v-117h-551v-79q0 -141 36 -230.5t126 -93.5q103 0 139.5 80t36.5 168h209q0 -184 -103 -293q-104 -109 -284 -109q-128 0 -190 61 t-80 118q-87 -179 -303 -179q-305 0 -369 346q-19 107 -19 264.5zM285 557q0 -208 37 -314t143 -106q113 0 155 115q35 94 35 304t-38 315.5t-148 105.5t-147 -106t-37 -314zM866 680h328v61q0 248 -160 248q-87 0 -127.5 -84t-40.5 -176v-49z" />
<glyph unicode="&#x178;" horiz-adv-x="985" d="M-8 1477h260l246 -637l252 637h243l-391 -899v-578h-233v578zM225 1599v224h197v-224h-197zM565 1599v224h197v-224h-197z" />
<glyph unicode="&#x2c6;" horiz-adv-x="455" d="M-68 1257l187 299h221l182 -299h-186l-111 183l-116 -183h-177z" />
<glyph unicode="&#x2dc;" horiz-adv-x="455" d="M-82 1272q0 85 52 166.5t155 81.5q26 0 108 -35q76 -37 111 -37q66 0 66 78h127q0 -48 -21 -106t-62 -98t-82.5 -40t-73.5 10t-70 27q-81 37 -113 37t-51 -24.5t-19 -59.5h-127z" />
<glyph unicode="&#x2000;" horiz-adv-x="983" />
<glyph unicode="&#x2001;" horiz-adv-x="1966" />
<glyph unicode="&#x2002;" horiz-adv-x="983" />
<glyph unicode="&#x2003;" horiz-adv-x="1966" />
<glyph unicode="&#x2004;" horiz-adv-x="655" />
<glyph unicode="&#x2005;" horiz-adv-x="491" />
<glyph unicode="&#x2006;" horiz-adv-x="327" />
<glyph unicode="&#x2007;" horiz-adv-x="327" />
<glyph unicode="&#x2008;" horiz-adv-x="245" />
<glyph unicode="&#x2009;" horiz-adv-x="393" />
<glyph unicode="&#x200a;" horiz-adv-x="109" />
<glyph unicode="&#x2010;" horiz-adv-x="721" d="M92 492v210h537v-210h-537z" />
<glyph unicode="&#x2011;" horiz-adv-x="721" d="M92 492v210h537v-210h-537z" />
<glyph unicode="&#x2012;" horiz-adv-x="721" d="M92 492v210h537v-210h-537z" />
<glyph unicode="&#x2013;" horiz-adv-x="1024" d="M0 498v198h1024v-198h-1024z" />
<glyph unicode="&#x2014;" horiz-adv-x="2048" d="M0 498v198h2048v-198h-2048z" />
<glyph unicode="&#x2018;" horiz-adv-x="492" d="M129 885v274q0 132 53 213t180 105v-119q-102 -31 -102 -168v-31h102v-274h-233z" />
<glyph unicode="&#x2019;" horiz-adv-x="492" d="M129 885v121q102 25 102 168v30h-102v273h233v-273q0 -179 -94 -258q-52 -44 -139 -61z" />
<glyph unicode="&#x201a;" horiz-adv-x="492" d="M129 0v272h233v-272q0 -179 -94 -258q-51 -43 -139 -61v120q102 29 102 168v31h-102z" />
<glyph unicode="&#x201c;" horiz-adv-x="872" d="M137 885v274q0 132 53 213t181 105v-119q-48 -14 -75.5 -58.5t-27.5 -109.5v-31h103v-274h-234zM502 885v274q0 132 53 213t180 105v-119q-102 -31 -102 -168v-31h102v-274h-233z" />
<glyph unicode="&#x201d;" horiz-adv-x="872" d="M137 885v121q103 26 103 168v30h-103v273h234v-273q0 -133 -52.5 -213t-181.5 -106zM502 885v121q47 12 74.5 56.5t27.5 111.5v30h-102v273h233v-273q0 -179 -95 -258q-51 -44 -138 -61z" />
<glyph unicode="&#x201e;" horiz-adv-x="872" d="M137 0v272h234v-272q0 -178 -95 -258q-51 -43 -139 -61v120q103 27 103 168v31h-103zM502 0v272h233v-272q0 -179 -94 -258q-51 -43 -139 -61v120q48 13 75 56.5t27 111.5v31h-102z" />
<glyph unicode="&#x2022;" horiz-adv-x="1024" d="M147 740q0 100 49 184t133 133t171.5 49t152.5 -27.5t117 -78.5q107 -108 107 -261q0 -99 -49.5 -184t-133 -134.5t-182.5 -49.5t-182.5 49.5t-133 134.5t-49.5 185z" />
<glyph unicode="&#x2026;" horiz-adv-x="2048" d="M225 0v272h234v-272h-234zM907 0v272h234v-272h-234zM1589 0v272h234v-272h-234z" />
<glyph unicode="&#x202f;" horiz-adv-x="393" />
<glyph unicode="&#x2039;" horiz-adv-x="492" d="M98 479v236l295 280v-227l-180 -170l180 -170v-227z" />
<glyph unicode="&#x203a;" horiz-adv-x="492" d="M98 201v227l181 170l-181 170v227l295 -280v-236z" />
<glyph unicode="&#x205f;" horiz-adv-x="491" />
<glyph unicode="&#x2122;" horiz-adv-x="2048" d="M66 1335v142h679v-142h-251v-710h-177v710h-251zM913 625v852h244l229 -605l230 605h244v-852h-164v673h-4l-248 -673h-115l-248 673h-4v-673h-164z" />
<glyph unicode="&#xe000;" horiz-adv-x="1110" d="M0 0v1110h1110v-1110h-1110z" />
</font>
</defs>
</svg>
