<?xml version="1.0" standalone="no"?>
<!DOCTYPE svg PUBLIC "-//W3C//DTD SVG 1.1//EN" "http://www.w3.org/Graphics/SVG/1.1/DTD/svg11.dtd" >
<svg xmlns="http://www.w3.org/2000/svg">
<metadata></metadata>
<defs>
<font id="ContextRepriseSSiRegular" horiz-adv-x="1139" >
<font-face units-per-em="2048" ascent="1638" descent="-410" />
<missing-glyph horiz-adv-x="569" />
<glyph horiz-adv-x="0" />
<glyph horiz-adv-x="0" />
<glyph unicode="&#xd;" horiz-adv-x="0" />
<glyph unicode=" "  horiz-adv-x="569" />
<glyph unicode="&#x09;" horiz-adv-x="569" />
<glyph unicode="&#xa0;" horiz-adv-x="569" />
<glyph unicode="!" horiz-adv-x="530" d="M152 0v229h227v-229h-227zM168 1022v455h194v-455l-51 -643h-92z" />
<glyph unicode="&#x22;" horiz-adv-x="872" d="M223 944v533h139v-533h-139zM510 944v533h139v-533h-139z" />
<glyph unicode="#" d="M70 426v141h219l43 310h-209v141h227l60 424h141l-59 -424h253l60 424h141l-59 -424h182v-141h-201l-43 -310h187v-141h-207l-60 -426h-141l60 426h-254l-60 -426h-141l59 426h-198zM430 567h254l43 310h-254z" />
<glyph unicode="$" d="M51 451h174q4 -135 82 -216.5t207 -103.5v547q-154 38 -243.5 84.5t-133 121t-43.5 195t54.5 216.5t150 152t215.5 64v138h113v-140q320 -38 403 -409h-174q-41 205 -229 239v-508l123 -32q111 -26 207 -111q118 -104 118 -274q0 -194 -125 -316q-120 -114 -323 -133 v-170h-113v170q-274 27 -392 241q-59 105 -71 245zM279 1096q0 -99 65 -154q34 -29 67.5 -43.5t102.5 -36.5v486q-104 -13 -169.5 -76.5t-65.5 -175.5zM627 131q264 21 264 264q0 109 -66.5 163t-197.5 91v-518z" />
<glyph unicode="%" horiz-adv-x="2048" d="M188 1047q0 185 77.5 302t254.5 117q328 0 328 -413q0 -179 -80.5 -297.5t-247.5 -118.5q-118 0 -192 53q-140 101 -140 357zM342 1051q0 -299 172 -299q180 0 180 301t-174 301q-101 0 -139.5 -91t-38.5 -212zM385 -45l1102 1538h174l-1100 -1538h-176zM1200 385 q0 186 78 303t255 117t252 -112t75 -295t-80.5 -303t-247.5 -120q-118 0 -192 53q-140 101 -140 357zM1354 389q0 -301 172 -301q180 0 180 301t-174 301q-101 0 -139.5 -90.5t-38.5 -210.5z" />
<glyph unicode="&#x26;" horiz-adv-x="1290" d="M68 394q0 95 44 176.5t115.5 138.5t182.5 116q-49 69 -84 119q-78 111 -78 233t89 211t241 89q94 0 175 -34.5t130 -102.5t49 -177.5t-76.5 -205t-198.5 -164.5l265 -326q41 117 47 229h166q-10 -118 -29.5 -187.5t-69.5 -174.5l285 -334h-227l-156 184 q-85 -135 -254 -186q-80 -23 -160 -23q-179 0 -281.5 69.5t-138.5 162t-36 187.5zM252 387.5q0 -114.5 84 -185.5t194 -71q194 0 312 174l-336 408q-128 -73 -191 -142t-63 -183.5zM422 1165q0 -72 65 -159q27 -36 76 -99q59 40 98 73q97 80 97 185q0 90 -79 135 q-38 21 -86 21t-85 -17q-86 -39 -86 -139z" />
<glyph unicode="'" horiz-adv-x="569" d="M215 944v533h139v-533h-139z" />
<glyph unicode="(" horiz-adv-x="530" d="M96 555q0 126 21 249t61 246q82 248 240 461h133q-270 -433 -270 -952q0 -402 145 -732q47 -107 125 -237h-133q-243 385 -300 713q-22 126 -22 252z" />
<glyph unicode=")" horiz-adv-x="530" d="M-20 -410q270 428 270 955q0 266 -63.5 500t-206.5 466h133q215 -340 283 -631q38 -163 38 -309.5t-20 -269t-62 -249.5q-85 -256 -239 -462h-133z" />
<glyph unicode="*" horiz-adv-x="721" d="M49 1227l37 98l217 -82v234h109v-234l219 82l41 -98l-223 -78l135 -188l-84 -66l-142 199l-133 -199l-92 66l133 188z" />
<glyph unicode="+" horiz-adv-x="1229" d="M98 453v141h447v453h139v-453h446v-141h-446v-453h-139v453h-447z" />
<glyph unicode="," horiz-adv-x="569" d="M170 0v229h227v-209q0 -121 -55.5 -205.5t-169.5 -117.5v102q63 22 91 81.5t28 119.5h-121z" />
<glyph unicode="-" horiz-adv-x="797" d="M102 492v165h592v-165h-592z" />
<glyph unicode="." horiz-adv-x="569" d="M170 0v229h227v-229h-227z" />
<glyph unicode="/" horiz-adv-x="682" d="M-37 -35l606 1546h150l-606 -1546h-150z" />
<glyph unicode="0" d="M86 689.5q0 179.5 14 302.5t61.5 232.5t147 175.5t261 66t261 -66t147.5 -176.5t61.5 -231.5t13.5 -301.5t-30 -337.5t-137.5 -267.5t-316.5 -110.5t-316 110.5t-137 267.5t-30 336.5zM270 721q0 -162 15.5 -282.5t81.5 -214t202 -93.5t202 93.5t81.5 214t15.5 282.5 t-15.5 282.5t-81.5 214t-202 93.5t-202 -93.5t-81.5 -214t-15.5 -282.5z" />
<glyph unicode="1" d="M178 1051v141q170 0 281 60.5t137 213.5h133v-1466h-174v1051h-377z" />
<glyph unicode="2" d="M49 0q23 238 133 376q53 66 118.5 116.5t182 123.5t191.5 132q153 123 153 299q0 77 -37 137t-102 93.5t-150.5 33.5t-149.5 -50q-124 -98 -124 -313h-174q0 155 55.5 272.5t160.5 181.5t242.5 64t241.5 -49.5t163 -144.5t59 -249t-92.5 -265.5t-260.5 -214.5 q-199 -120 -258 -167q-127 -101 -149 -220h745v-156h-948z" />
<glyph unicode="3" d="M61 453h175q6 -200 142 -281q68 -41 159.5 -41t164.5 34.5t115.5 98.5t42.5 151.5t-41 151.5q-81 127 -268 127q-55 0 -105 -6v150q27 -2 76 -2q117 0 197 62t80 175.5t-71.5 175.5t-197.5 62t-194 -89t-70 -229h-174q11 297 208 414q100 59 236 59t235 -42.5t155.5 -131 t56.5 -200.5t-57 -191t-144 -119v-4q129 -28 195.5 -123.5t66.5 -234.5t-66.5 -240.5t-180.5 -153t-255 -51.5t-251 55.5t-170 163.5t-60 259z" />
<glyph unicode="4" d="M57 344v168l662 954h139v-968h197v-154h-197v-344h-164v344h-637zM207 498h487v719h-4z" />
<glyph unicode="5" d="M72 395h174q8 -113 92 -188.5t215 -75.5t218 89.5t87 256.5q0 94 -41.5 171.5t-115.5 120t-171 42.5q-157 0 -270 -139l-149 8l135 762h717v-156h-586l-78 -422l4 -4q91 107 270 107q131 0 238 -57t169 -170.5t62 -258.5t-58 -257t-172.5 -180.5t-259 -68.5t-249.5 51 t-166.5 146.5t-64.5 222.5z" />
<glyph unicode="6" d="M78 680q0 553 281 723q104 63 253 63q272 0 370 -215q32 -69 40 -159h-174q-18 138 -124 192q-51 27 -120 27q-332 0 -352 -555l4 -4q118 192 362 192q135 0 236.5 -62t155 -170.5t53.5 -236t-47.5 -239.5t-157.5 -186.5t-280 -74.5q-500 0 -500 705zM285 457 q0 -141 81 -233.5t220 -92.5q133 0 216 96q77 91 77 228q0 201 -131 289q-67 44 -162.5 44t-163 -43.5t-102.5 -120t-35 -167.5z" />
<glyph unicode="7" d="M102 1276v166h940v-152q-220 -220 -379 -587q-158 -366 -178 -703h-194q38 530 359 1008q98 145 214 268h-762z" />
<glyph unicode="8" d="M82 422q0 176 116 284q56 53 138 82q-91 38 -147 122.5t-56 191t58.5 191.5t157 129t229.5 44t230 -52q191 -102 191 -322q0 -97 -55 -180.5t-145 -123.5q258 -79 258 -366q0 -207 -138 -328q-135 -119 -344 -119q-302 0 -429 201q-64 102 -64 246zM266 414 q0 -130 86.5 -206.5t222.5 -76.5q129 0 213 80t84 205q0 77 -40.5 141.5t-109 100.5t-152 36t-153.5 -35t-110.5 -99t-40.5 -146zM317 1083q0 -74 33 -127q67 -106 225 -106q105 0 172.5 63.5t67.5 172t-66.5 167t-157 58.5t-149 -26.5t-92 -77t-33.5 -124.5z" />
<glyph unicode="9" d="M70 985.5q0 141.5 61 251t169 169.5t232 60t212 -33t156 -113q144 -168 144 -554q0 -791 -503 -791q-258 0 -371 169q-58 86 -70 210h174q10 -105 84.5 -164t168 -59t154 35.5t101.5 106.5q80 141 86 423l-4 4q-47 -90 -138.5 -146t-216.5 -56t-228.5 61.5t-157 173 t-53.5 253zM254 965q0 -81 37 -153t103.5 -115.5t149.5 -43.5t151.5 43.5t105.5 119t37 154t-20 139t-57 105.5q-81 97 -222 97q-99 0 -163 -47q-122 -91 -122 -299z" />
<glyph unicode=":" horiz-adv-x="569" d="M170 0v229h227v-229h-227zM170 840v229h227v-229h-227z" />
<glyph unicode=";" horiz-adv-x="569" d="M170 0v229h227v-209q0 -121 -55.5 -205.5t-169.5 -117.5v102q63 22 91 81.5t28 119.5h-121zM170 840v229h227v-229h-227z" />
<glyph unicode="&#x3c;" horiz-adv-x="1229" d="M94 459v129l1041 475v-141l-871 -398l871 -399v-141z" />
<glyph unicode="=" horiz-adv-x="1229" d="M98 244v141h1032v-141h-1032zM98 662v141h1032v-141h-1032z" />
<glyph unicode="&#x3e;" horiz-adv-x="1229" d="M94 -16v141l871 399l-871 398v141l1041 -475v-129z" />
<glyph unicode="?" d="M113 1016q0 141 55.5 254t159 177t237.5 64t232 -49t152.5 -142t54.5 -215.5t-46 -200t-131 -156.5q-92 -90 -135 -152t-43 -156v-80h-174v97q0 138 87 240q34 40 93.5 101t88.5 96q75 88 75 220q-8 115 -73 179.5t-189.5 64.5t-197 -95.5t-72.5 -246.5h-174zM446 0v229 h228v-229h-228z" />
<glyph unicode="@" horiz-adv-x="1638" d="M86 745q0 155 59 296t165 247t244 164.5t286.5 58.5t275.5 -47.5t222 -131.5t149.5 -203t54.5 -271t-76.5 -290t-189.5 -216t-213 -78q-56 0 -92 35.5t-39 100.5h-6q-120 -140 -254 -140q-127 0 -212 98q-81 93 -81 216.5t34.5 228t98.5 189t154.5 134.5t193.5 50 q165 0 230 -170l47 131h129l-172 -588q-23 -73 -23 -106q0 -64 47.5 -64t98 43.5t93.5 114.5q93 154 93 295t-45 241.5t-122 170.5q-163 145 -388 145q-172 0 -315 -90.5t-225.5 -243t-82.5 -331.5t86 -330t232.5 -238.5t314.5 -87.5q198 0 368 120q83 58 140 132h129 q-93 -167 -270 -268q-170 -97 -375.5 -97t-383 103.5t-279 283t-101.5 393.5zM532 614.5q0 -89.5 49.5 -146t120.5 -56.5t129 43t103 113q92 144 92 284q0 75 -50.5 133.5t-127.5 58.5t-153.5 -68.5t-119.5 -170t-43 -191z" />
<glyph unicode="A" horiz-adv-x="1327" d="M-14 0l571 1477h215l571 -1477h-215l-159 444h-619l-164 -444h-200zM412 610h495l-243 688h-5z" />
<glyph unicode="B" horiz-adv-x="1403" d="M160 0v1477h530q194 0 270.5 -14.5t122.5 -42.5t84 -72q82 -95 82 -234q0 -155 -100 -253q-49 -48 -117 -77v-4q179 -35 246 -190q33 -75 33 -162t-28.5 -163t-85.5 -135q-124 -130 -331 -130h-706zM354 166h488q125 0 200 72q74 70 74 192q0 246 -317 246h-445v-510z M354 842h389q163 0 237.5 58t74.5 187.5t-81 176.5t-231 47h-389v-469z" />
<glyph unicode="C" horiz-adv-x="1479" d="M88 704.5q0 192.5 45.5 334.5t134.5 248q188 224 512 224q328 0 496 -217q84 -109 106 -262h-194q-41 204 -222 280q-86 36 -188 36q-166 0 -277.5 -82.5t-164.5 -218t-53 -281.5t29.5 -258.5t90.5 -197.5q130 -179 377 -179q125 0 218 55q185 110 204 371h195 q-26 -277 -191 -433q-166 -159 -442 -159q-220 0 -372 100t-228 273.5t-76 366z" />
<glyph unicode="D" horiz-adv-x="1442" d="M160 0v1477h502q521 0 656 -394q46 -134 46 -309q0 -774 -702 -774h-502zM354 166h324q101 0 209.5 38t195 167t86.5 391t-114 405.5t-373 143.5h-328v-1145z" />
<glyph unicode="E" horiz-adv-x="1251" d="M160 0v1477h1009v-166h-815v-469h760v-166h-760v-510h822v-166h-1016z" />
<glyph unicode="F" horiz-adv-x="1176" d="M160 0v1477h960v-166h-766v-469h672v-166h-672v-676h-194z" />
<glyph unicode="G" horiz-adv-x="1554" d="M88 709q0 219 79.5 403t237 291.5t379.5 107.5q347 0 516 -212q87 -110 113 -277h-194q-27 160 -145.5 243t-269 83t-244.5 -51t-156 -141q-121 -174 -121 -437q0 -157 58.5 -291.5t172.5 -215.5t263.5 -81t255.5 60.5t163 171t57 249.5h-467v166h641v-778h-122l-52 184 q-80 -110 -205.5 -164.5t-272.5 -54.5t-278 60.5t-221 165.5q-188 218 -188 518z" />
<glyph unicode="H" horiz-adv-x="1479" d="M160 0v1477h194v-635h770v635h195v-1477h-195v676h-770v-676h-194z" />
<glyph unicode="I" horiz-adv-x="530" d="M168 0v1477h194v-1477h-194z" />
<glyph unicode="J" horiz-adv-x="1063" d="M45 395v90h195v-61q0 -192 92 -257q52 -36 162 -36q215 0 215 266v1080h194v-1108q0 -242 -180 -347q-96 -57 -242 -57t-241 50q-195 102 -195 380z" />
<glyph unicode="K" horiz-adv-x="1366" d="M160 0v1477h194v-736l742 736h252l-617 -596l641 -881h-246l-528 748l-244 -230v-518h-194z" />
<glyph unicode="L" d="M160 0v1477h194v-1311h774v-166h-968z" />
<glyph unicode="M" horiz-adv-x="1784" d="M164 0v1477h266l461 -1241l463 1241h266v-1477h-184v1229h-4l-457 -1229h-166l-457 1229h-4v-1229h-184z" />
<glyph unicode="N" horiz-adv-x="1479" d="M158 0v1477h207l770 -1198h4v1198h184v-1477h-213l-764 1186h-4v-1186h-184z" />
<glyph unicode="O" horiz-adv-x="1556" d="M78 740q0 151 45 291t133.5 247.5t220.5 170t301.5 62.5t302.5 -62.5t221 -170.5q177 -216 177 -539q0 -322 -177 -539q-89 -109 -221.5 -172t-302 -63t-301.5 63t-220.5 171.5t-133.5 249t-45 291.5zM272 738q0 -156 54.5 -295t168.5 -225.5t263.5 -86.5t245.5 51 t159 139q121 169 121 418t-121 419q-134 190 -385 190q-169 0 -283.5 -87t-168.5 -227t-54 -296z" />
<glyph unicode="P" horiz-adv-x="1327" d="M160 0v1477h641q217 0 332.5 -114.5t115.5 -322t-115.5 -322t-332.5 -114.5h-447v-604h-194zM354 770h381q320 0 320 270.5t-320 270.5h-381v-541z" />
<glyph unicode="Q" horiz-adv-x="1556" d="M78 739q0 323 178 539q89 108 221 170.5t301.5 62.5t302.5 -62.5t221 -170.5q177 -216 177 -539q0 -237 -99 -423q-51 -95 -123 -164l193 -156l-98 -125l-224 182q-148 -88 -333.5 -88t-317.5 63t-221 172q-178 218 -178 539zM272 738q0 -156 54.5 -295t168.5 -225.5 t283 -86.5q110 0 203 41l-162 129l103 121l194 -158q84 84 126 209t42 254.5t-29.5 236.5t-91.5 194q-134 190 -385 190q-169 0 -283.5 -87t-168.5 -227t-54 -296z" />
<glyph unicode="R" horiz-adv-x="1403" d="M160 0v1477h688q134 0 235.5 -47.5t155 -135.5t53.5 -216.5t-62.5 -226.5t-191.5 -136v-4q115 -22 161 -98t54.5 -178t14.5 -181q12 -177 75 -254h-217q-23 25 -28 66t-9.5 143t-15.5 156q-18 130 -66.5 198t-177.5 68h-475v-631h-194zM354 797h406q157 0 247.5 57 t90.5 205q0 158 -114 220q-59 32 -146 32h-484v-514z" />
<glyph unicode="S" horiz-adv-x="1327" d="M76 485h184q0 -175 123 -264.5t291 -89.5t275.5 61.5t107.5 206.5q0 94 -63 148t-140 77t-230.5 58t-224 58t-135.5 66q-143 92 -143 273q0 211 163 327q148 105 367 105q237 0 379 -113q152 -121 160 -354h-184q-16 154 -111 229t-252 75q-197 0 -283 -107 q-45 -57 -45 -133.5t37.5 -120t99.5 -69.5q76 -31 273.5 -75t297 -88t164 -129t64.5 -209.5t-48.5 -208t-132.5 -138.5q-163 -105 -407.5 -105t-415.5 132t-171 388z" />
<glyph unicode="T" horiz-adv-x="1176" d="M4 1311v166h1170v-166h-488v-1311h-194v1311h-488z" />
<glyph unicode="U" horiz-adv-x="1479" d="M152 535v942h194v-942q0 -195 106 -299.5t295.5 -104.5t287.5 104t98 300v942h194v-942q0 -374 -265 -505q-130 -65 -316 -65t-320 61q-274 125 -274 509z" />
<glyph unicode="V" horiz-adv-x="1251" d="M-2 1477h211l418 -1280h4l422 1280h202l-520 -1477h-221z" />
<glyph unicode="W" horiz-adv-x="1896" d="M25 1477h198l287 -1229h4l328 1229h211l323 -1229h4l297 1229h195l-391 -1477h-203l-334 1241h-4l-338 -1241h-203z" />
<glyph unicode="X" horiz-adv-x="1251" d="M-2 0l510 760l-481 717h233l365 -578l381 578h217l-484 -717l514 -760h-237l-393 610l-406 -610h-219z" />
<glyph unicode="Y" horiz-adv-x="1327" d="M4 1477h232l438 -703l428 703h221l-559 -873v-604h-195v604z" />
<glyph unicode="Z" horiz-adv-x="1251" d="M45 0v166l909 1145h-839v166h1069v-166l-908 -1145h932v-166h-1163z" />
<glyph unicode="[" horiz-adv-x="530" d="M147 -410v1921h383v-139h-219v-1640h219v-142h-383z" />
<glyph unicode="\" horiz-adv-x="682" d="M-37 1511h150l606 -1546h-150z" />
<glyph unicode="]" horiz-adv-x="530" d="M0 -268h219v1640h-219v139h383v-1921h-383v142z" />
<glyph unicode="^" horiz-adv-x="1229" d="M102 547l447 895h131l446 -895h-143l-371 743l-364 -743h-146z" />
<glyph unicode="_" horiz-adv-x="1024" d="M0 -156h1024v-102h-1024v102z" />
<glyph unicode="`" horiz-adv-x="455" d="M-47 1511h223l176 -294h-131z" />
<glyph unicode="a" horiz-adv-x="1100" d="M74 274q0 113 48.5 180t122.5 97t150.5 45.5t163 28t131.5 24.5q98 27 98 113q0 178 -235 178q-119 0 -188.5 -46t-75.5 -157h-174q8 186 137 277q116 80 311 80q110 0 197.5 -23t144 -88.5t56.5 -181.5v-551q0 -71 8.5 -95t40 -24t59.5 10v-137q-50 -29 -125 -29 q-147 0 -147 166q-141 -166 -373 -166q-155 0 -252.5 73.5t-97.5 225.5zM258 292.5q0 -84.5 57.5 -123t155 -38.5t171.5 37.5t109 93t35 111.5v180q-50 -38 -164.5 -52.5t-150.5 -21.5q-101 -18 -157 -60t-56 -126.5z" />
<glyph unicode="b" horiz-adv-x="1214" d="M137 0v1477h174v-553h4q42 86 133 128t207.5 42t209 -44t153.5 -122q123 -155 123 -396q0 -154 -54.5 -281.5t-164.5 -201.5t-265 -74q-137 0 -247 71q-57 36 -95 97h-4v-143h-174zM305 537q0 -244 145 -351q74 -55 187.5 -55t185 57.5t102.5 152t31 202t-36 197 t-109 145t-182 55.5q-163 0 -243.5 -118t-80.5 -285z" />
<glyph unicode="c" horiz-adv-x="1100" d="M74 522q0 253 126 408q133 164 373 164q190 0 315 -92t142 -275h-180q-20 101 -88 157t-174 56q-175 0 -252.5 -117.5t-77.5 -300.5q0 -231 134 -336q70 -55 184 -55t189.5 68.5t92.5 191.5h178q-29 -198 -148.5 -307t-318.5 -109q-236 0 -365.5 150.5t-129.5 396.5z" />
<glyph unicode="d" horiz-adv-x="1214" d="M74 539q0 239 122 392q129 163 361 163q137 0 247 -70q57 -37 95 -98h4v551h174v-1477h-174v145h-4q-40 -84 -131 -127t-208 -43t-208.5 44t-153.5 123q-124 158 -124 397zM258 526q0 -230 146 -340q74 -55 182 -55q162 0 242.5 117.5t80.5 286.5q0 243 -145 350 q-74 55 -189 55q-166 0 -241.5 -118.5t-75.5 -295.5z" />
<glyph unicode="e" horiz-adv-x="1100" d="M74 539q0 157 63.5 284t177.5 199t250.5 72t229 -52.5t148.5 -139.5q108 -169 108 -421h-793q0 -153 84.5 -251.5t245.5 -98.5q107 0 179.5 53t94.5 156h172q-34 -175 -153 -270t-291 -95t-284 71q-221 139 -232 493zM258 637h608q-11 179 -152 263q-69 40 -155.5 40 t-153 -41t-104 -110.5t-43.5 -151.5z" />
<glyph unicode="f" horiz-adv-x="606" d="M25 913v156h178v160q0 264 293 264q59 0 112 -16v-154q-42 14 -103.5 14t-94.5 -25.5t-33 -92.5v-150h205v-156h-205v-913h-174v913h-178z" />
<glyph unicode="g" horiz-adv-x="1176" d="M74 530q0 223 110 380q129 184 379 184q139 0 237 -81q49 -41 79 -98h2v154h163v-979q0 -524 -491 -524q-172 0 -301.5 76t-136.5 237h174q5 -86 89 -129t185 -43q318 0 318 406v69h-4q-42 -95 -133 -144.5t-197 -49.5q-226 0 -349.5 155t-123.5 387zM258 551 q0 -242 124 -349q68 -59 175 -59q159 0 237 121t78 293q0 225 -128 329q-68 54 -173.5 54t-176.5 -53q-136 -102 -136 -336z" />
<glyph unicode="h" d="M131 0v1477h174v-566h4q26 59 81 101q105 82 253 82q199 0 282 -101.5t83 -290.5v-702h-174v725q0 98 -57.5 156.5t-158.5 58.5q-152 0 -232.5 -92t-80.5 -244v-604h-174z" />
<glyph unicode="i" horiz-adv-x="455" d="M141 0v1069h174v-1069h-174zM141 1262v215h174v-215h-174z" />
<glyph unicode="j" horiz-adv-x="455" d="M-29 -250q25 -4 77 -4t72.5 31.5t20.5 113.5v1178h174v-1206q0 -139 -67 -206t-187 -67q-50 0 -90 9v151zM141 1262v215h174v-215h-174z" />
<glyph unicode="k" horiz-adv-x="1063" d="M141 0v1477h174v-875l484 467h233l-420 -389l451 -680h-221l-363 559l-164 -153v-406h-174z" />
<glyph unicode="l" horiz-adv-x="455" d="M141 0v1477h174v-1477h-174z" />
<glyph unicode="m" horiz-adv-x="1747" d="M131 0v1069h164v-158h4q118 183 342 183q104 0 183 -45.5t108 -137.5q53 85 141.5 134t190.5 49q352 0 352 -310v-784h-174v700q0 114 -43.5 177t-144 63t-162.5 -34q-131 -71 -131 -240v-666h-175v700q0 114 -44.5 177t-146.5 63t-165.5 -47.5t-94 -112t-30.5 -114.5 v-666h-174z" />
<glyph unicode="n" d="M131 0v1069h164v-170h4q108 195 344 195q199 0 282 -101.5t83 -290.5v-702h-174v725q0 98 -57.5 156.5t-158.5 58.5q-152 0 -232.5 -92t-80.5 -244v-604h-174z" />
<glyph unicode="o" horiz-adv-x="1176" d="M74 534.5q0 156.5 59.5 285t175.5 201.5t279 73t279 -73t175.5 -201.5t59.5 -285t-59.5 -285t-175.5 -201.5t-279 -73t-279 73t-175.5 201.5t-59.5 285zM258 535q0 -127 44 -218.5t119.5 -138.5t166.5 -47t166.5 47t119.5 138.5t44 218.5t-44 218.5t-119 139t-167 47.5 t-167 -47.5t-119 -139t-44 -218.5z" />
<glyph unicode="p" horiz-adv-x="1214" d="M137 -410v1479h174v-145h4q42 86 133 128t207.5 42t209 -44t153.5 -122q123 -155 123 -396q0 -154 -54.5 -281.5t-164.5 -201.5t-265 -74q-137 0 -247 71q-57 36 -95 97h-4v-553h-174zM305 537q0 -244 145 -351q74 -55 187.5 -55t185 57.5t102.5 152t31 202t-36 197 t-109 145t-182 55.5q-163 0 -243.5 -118t-80.5 -285z" />
<glyph unicode="q" horiz-adv-x="1214" d="M74 539q0 239 122 392q129 163 361 163q137 0 247 -70q57 -37 95 -98h4v143h174v-1479h-174v555h-4q-40 -84 -131 -127t-208 -43t-208.5 44t-153.5 123q-124 158 -124 397zM258 526q0 -230 146 -340q74 -55 182 -55q162 0 242.5 117.5t80.5 286.5q0 243 -145 350 q-74 55 -189 55q-166 0 -241.5 -118.5t-75.5 -295.5z" />
<glyph unicode="r" horiz-adv-x="682" d="M125 0v1069h164v-225h4q83 171 219 222q72 28 170 28v-187q-268 0 -346 -195q-37 -95 -37 -237v-475h-174z" />
<glyph unicode="s" horiz-adv-x="1024" d="M63 338h175q8 -207 284 -207q106 0 181 34.5t75 123.5q0 92 -104 135q-61 26 -242 63q-108 27 -180 58q-166 71 -166 246q0 102 57.5 170.5t149 100.5t188.5 32q416 0 434 -334h-174q-8 94 -78 137t-165 43t-161.5 -32t-66.5 -105q0 -82 104 -123q59 -22 232 -60.5 t265 -102.5t92 -194.5t-65 -206.5q-120 -141 -386 -141q-194 0 -317 87t-132 276z" />
<glyph unicode="t" horiz-adv-x="645" d="M18 913v156h181v322h174v-322h211v-156h-211v-663q0 -59 25 -76.5t106 -17.5h80v-156h-133q-97 0 -149.5 18t-77.5 68t-25 147v680h-181z" />
<glyph unicode="u" d="M131 367v702h174v-723q0 -97 58 -156t157 -59q154 0 234 91.5t80 242.5v604h174v-1069h-164v170h-4q-108 -195 -344 -195q-285 0 -346 232q-19 72 -19 160z" />
<glyph unicode="v" horiz-adv-x="1024" d="M29 1069h194l297 -891h4l289 891h182l-387 -1069h-186z" />
<glyph unicode="w" horiz-adv-x="1552" d="M35 1069h192l240 -874h4l213 874h190l222 -874h4l237 874h181l-338 -1069h-185l-215 850h-4l-213 -850h-188z" />
<glyph unicode="x" horiz-adv-x="1061" d="M18 0l398 563l-369 506h223l254 -375l264 375h209l-364 -491l409 -578h-223l-295 442l-295 -442h-211z" />
<glyph unicode="y" horiz-adv-x="1024" d="M16 1069h197l309 -874h4l297 874h185l-461 -1212q-44 -111 -83.5 -170.5t-92 -87t-127.5 -27.5t-125 18v162q79 -24 102 -24q93 0 144 96l71 182z" />
<glyph unicode="z" horiz-adv-x="983" d="M45 0v135l639 778h-598v156h823v-119l-647 -794h676v-156h-893z" />
<glyph unicode="{" horiz-adv-x="682" d="M98 479v142q43 0 82 31q88 68 88 212v377q0 124 68 197t153 73h144v-122h-103q-98 0 -98 -179v-379q0 -126 -61 -194t-117 -82v-6q31 -4 72.5 -32t73.5 -89t32 -158v-379q0 -176 98 -176h103v-125h-144q-83 0 -152 74t-69 197v377q0 147 -87 212q-39 29 -83 29z" />
<glyph unicode="|" horiz-adv-x="455" d="M158 -35v1546h139v-1546h-139z" />
<glyph unicode="}" horiz-adv-x="682" d="M49 -285h103q98 0 98 176v379q0 89 32 150t74.5 91.5t71.5 37.5v6q-56 7 -117 73.5t-61 202.5v375q0 183 -98 183h-103v122h144q84 0 152.5 -73t68.5 -197v-377q0 -146 87 -213q39 -30 83 -30v-142q-43 0 -82 -30q-88 -66 -88 -211v-377q0 -123 -69 -197t-152 -74h-144 v125z" />
<glyph unicode="~" horiz-adv-x="1229" d="M141 473q91 178 256 178q83 0 228 -65q50 -24 86 -42q84 -42 130 -42t83.5 39t89.5 118l73 -102q-56 -82 -114.5 -130t-125 -48t-113.5 16.5t-112.5 53t-118.5 58t-115.5 21.5t-100.5 -42.5t-72 -114.5z" />
<glyph horiz-adv-x="1802" d="M0 264q2 89 61 156t152 67q49 0 49 -49q0 -28 -48 -49.5t-71.5 -41.5t-23.5 -83t49 -98t123 -35q4 2 8 2q70 0 138.5 26t113.5 75t45 106.5t-30 114.5t-88 143.5t-88 150.5t-30 130q0 201 197 376q89 81 204 138t201.5 57t133.5 -37t47 -106q0 -22 -6 -43 q88 80 202.5 136t202 56t134 -37t46.5 -113q0 -141 -206 -307q-188 -141 -269 -141q-19 0 -38 14t-19 33l2 4q0 40 70 66q110 36 194 103q158 123 158 212q0 31 -19 48.5t-68.5 17.5t-134.5 -40t-154 -93.5t-127 -142t-58 -166t30.5 -141.5t90.5 -155.5t91 -151t31 -116.5 q0 -92 -64 -164.5t-162 -111.5t-187 -39q-191 0 -262 110q-61 -54 -149 -85t-179.5 -31t-160.5 33q-132 64 -132 202zM473 916q0 -70 20.5 -123t45 -94t76.5 -123t69 -119q61 37 96 37q62 0 62 -50q0 -19 -12.5 -29.5t-40 -21t-46.5 -21.5q-45 -28 -45 -114q6 -57 54 -89 t118 -32q4 2 9 2q70 0 138.5 26t113.5 75t45 106.5t-30 114.5t-88 143.5t-88 150.5t-30 131.5t23 133.5q-5 -4 -14 -14t-43.5 -37t-112 -72t-111.5 -45t-53 14t-19 33l2 4q0 40 70 66q108 35 207 110q145 121 145 205q0 31 -19 48.5t-67.5 17.5t-133 -39.5t-155.5 -94 t-128.5 -142.5t-57.5 -158zM1300 86q0 60 68 212t151 281.5t115 129.5q16 0 27.5 -10.5t11.5 -27t-55 -102.5q-142 -219 -209 -444q-14 -50 -24 -69t-34.5 -19t-37.5 15t-13 34zM1706 954q0 26 21 62t50.5 62t55.5 26q49 0 49 -49q0 -27 -21.5 -63.5t-51.5 -62.5t-56 -26 q-47 0 -47 51z" />
<glyph unicode="&#xa1;" horiz-adv-x="530" d="M152 840v229h227v-229h-227zM168 45l51 643h92l51 -643v-455h-194v455z" />
<glyph unicode="&#xa2;" d="M94 520q0 152 52.5 279t158.5 206t252 89v196h80v-196q173 -5 284.5 -96.5t131.5 -270.5h-179q-20 98 -81 154t-156 59v-809q106 10 168.5 80t79.5 180h174q-11 -105 -64 -202t-144 -155.5t-214 -58.5v-215h-80v215q-146 6 -250.5 77.5t-158.5 193.5t-54 274zM279 522 q0 -221 121 -328q63 -56 157 -63v809q-101 -14 -163 -73q-115 -109 -115 -345z" />
<glyph unicode="&#xa3;" d="M96 115q137 93 196 225q30 68 30 147t-52 189h-174v94h119q-96 166 -96 322q0 194 139 308q135 111 328 111q309 0 424 -239q59 -120 59 -293h-174q-10 379 -299 379q-123 0 -208 -79t-85 -194q0 -104 55 -213q24 -47 52 -102h325v-94h-280q41 -80 41 -151t-19.5 -126.5 t-50.5 -99.5q-53 -74 -168 -166l4 -4q126 59 197.5 59t109.5 -7t88.5 -21t74.5 -21q64 -18 112 -18q86 0 182 76l88 -138q-112 -94 -299 -94q-73 0 -206.5 42t-221.5 42t-194 -72z" />
<glyph unicode="&#xa4;" d="M51 299l113 121q-107 129 -107 313t111 295l-117 121l101 100l114 -116q57 49 140 77.5t167 28.5q183 0 295 -104l117 116l102 -104l-112 -115q106 -117 106 -303t-106 -313l112 -117l-96 -96l-114 121q-119 -115 -306.5 -115t-308.5 113l-112 -121zM231 721.5 q0 -98.5 45.5 -180t124 -129t172.5 -47.5t170.5 48.5t120 132.5t43.5 180t-43.5 178t-120 130.5t-169 48.5t-172.5 -48t-125.5 -131.5t-45.5 -182z" />
<glyph unicode="&#xa5;" d="M0 1477h223l357 -729l346 729h213l-365 -713h191v-125h-258l-37 -68v-88h295v-123h-295v-360h-195v360h-289v123h289v88l-37 68h-252v125h189z" />
<glyph unicode="&#xa6;" horiz-adv-x="455" d="M158 -35v604h139v-604h-139zM158 907v604h139v-604h-139z" />
<glyph unicode="&#xa7;" d="M72 672q0 95 64 177.5t155 108.5q-94 98 -94 220q0 154 112.5 243.5t276.5 89.5t263 -96t103 -287h-174q-2 99 -57.5 164.5t-144.5 65.5t-144 -46t-55 -132q0 -87 101 -163q46 -34 131.5 -82t107.5 -61q159 -84 249.5 -174.5t90.5 -226.5q0 -99 -59.5 -183t-153.5 -120 q121 -90 121 -248q0 -150 -109 -242q-106 -90 -274 -90q-118 0 -209 47.5t-143.5 136.5t-59.5 208h174q4 -146 112 -206q52 -30 128 -30t138 45t62 127q0 93 -108 175q-49 37 -90 59.5t-152 83t-188 116.5q-174 129 -174 320zM240 683q0 -61 30 -106.5t71 -75.5t114 -73 q168 -88 286 -172q65 28 106.5 78t41.5 122t-59.5 125t-132 97t-124 75.5t-87 53t-97.5 61.5q-61 -20 -105 -72t-44 -113z" />
<glyph unicode="&#xa8;" horiz-adv-x="455" d="M-57 1225v215h184v-215h-184zM328 1225v215h184v-215h-184z" />
<glyph unicode="&#xa9;" horiz-adv-x="1638" d="M49 741q0 215 104.5 392t282 277.5t385.5 100.5q155 0 294.5 -57t246.5 -162t167 -247t60 -303.5t-59.5 -304t-167.5 -249.5q-225 -223 -541 -223q-206 0 -385 102t-283 280.5t-104 393.5zM188 740q0 -184 83 -335.5t228.5 -239t320.5 -87.5t319.5 87t227.5 239t83 336 t-83 334.5t-227.5 237.5t-319.5 87t-320 -87.5t-228.5 -237.5t-83.5 -334zM391 739q0 136 54 243.5t156.5 167.5t219 60t199 -36t136.5 -107.5t69 -171.5h-129q-17 90 -86 145.5t-167 55.5t-169 -46q-144 -93 -144 -307q0 -98 39 -181.5t111.5 -133t168.5 -49.5t164.5 59 t82.5 152h131q-21 -99 -76 -174q-113 -152 -305 -152q-204 0 -329.5 135t-125.5 340z" />
<glyph unicode="&#xaa;" horiz-adv-x="774" d="M51 971q0 178 246 205q146 15 190.5 31t44.5 55q0 62 -41.5 82t-115.5 20q-165 0 -170 -117h-123q6 113 89.5 166t211.5 53q266 0 266 -180v-330q0 -67 30 -67t44 4v-90q-46 -17 -88 -17q-97 0 -105 95q-90 -95 -239 -95q-103 0 -171.5 46.5t-68.5 138.5zM190 975.5 q0 -49.5 35 -68t115.5 -18.5t133 44.5t52.5 98.5v96q-33 -20 -99.5 -30.5t-118 -18.5t-85 -31t-33.5 -72.5z" />
<glyph unicode="&#xab;" horiz-adv-x="948" d="M102 483v183l312 247v-176l-205 -162l205 -161v-178zM504 483v183l311 247v-176l-205 -162l205 -161v-178z" />
<glyph unicode="&#xac;" horiz-adv-x="1229" d="M98 662v141h1032v-578h-139v437h-893z" />
<glyph unicode="&#xad;" horiz-adv-x="797" d="M102 492v165h592v-165h-592z" />
<glyph unicode="&#xae;" horiz-adv-x="1638" d="M49 741q0 215 104.5 392t282 277.5t385.5 100.5q155 0 294.5 -57t246.5 -162t167 -247t60 -303.5t-59.5 -304t-167.5 -249.5q-225 -223 -541 -223q-206 0 -385 102t-283 280.5t-104 393.5zM188 740.5q0 -184.5 83 -336t228.5 -239t320.5 -87.5t319.5 87t227.5 239 t83 336.5t-83 335t-228 237t-319 86.5t-319.5 -87t-229 -237t-83.5 -334.5zM522 287v905h346q314 0 314 -258q0 -223 -236 -248l256 -399h-149l-244 389h-147v-389h-140zM662 791h145q115 0 175 26t60 115t-53.5 117t-142.5 28h-184v-286z" />
<glyph unicode="&#xaf;" horiz-adv-x="455" d="M-121 1282v115h699v-115h-699z" />
<glyph unicode="&#xb0;" horiz-adv-x="819" d="M115 1168.5q0 122.5 85.5 210t209.5 87.5q79 0 147.5 -40t108 -109t39.5 -148.5t-39.5 -149t-107.5 -109.5t-148 -40q-123 0 -209 88t-86 210.5zM217 1182.5q0 -63.5 23.5 -108t68 -72t100.5 -27.5t101 27q92 57 92 167q0 111 -92 167q-44 28 -116 28t-124.5 -59 t-52.5 -122.5z" />
<glyph unicode="&#xb1;" horiz-adv-x="1229" d="M98 0v141h1032v-141h-1032zM98 561v139h447v344h139v-344h446v-139h-446v-346h-139v346h-447z" />
<glyph unicode="&#xb2;" horiz-adv-x="682" d="M29 580q7 176 121 270q50 40 140 93t136 87q96 71 96 178q0 87 -85 127q-40 19 -85 19q-85 0 -126.5 -58t-41.5 -147h-139q0 92 39 165q81 152 274 152q180 0 263 -120q41 -60 41 -152t-60 -156.5t-138 -111t-120 -70.5t-82 -52q-78 -54 -94 -112h481v-112h-620z" />
<glyph unicode="&#xb3;" horiz-adv-x="682" d="M8 856h139q3 -86 51.5 -132t118.5 -46t115 18q96 41 96 127.5t-54.5 125t-135.5 38.5h-68v103h49q75 0 122.5 33t47.5 88t-20 83q-42 60 -129 60t-129.5 -49t-42.5 -129h-139q8 136 88 213t215 77q182 0 258 -108q39 -55 39 -121.5t-41 -115.5t-99 -72v-5 q86 -16 132.5 -72t46.5 -140.5t-46 -145.5q-90 -121 -286 -121q-142 0 -233 75q-95 78 -95 216z" />
<glyph unicode="&#xb4;" horiz-adv-x="455" d="M102 1217l177 294h223l-269 -294h-131z" />
<glyph unicode="&#xb5;" d="M131 -410v1479h174v-723q0 -97 58 -156t157 -59q154 0 234 91.5t80 242.5v604h174v-1069h-164v170h-4q-108 -195 -344 -195q-137 0 -187 78h-4v-463h-174z" />
<glyph unicode="&#xb6;" horiz-adv-x="1229" d="M98 1048.5q0 102.5 32 181.5t94 135q124 112 341 112h490v-1799h-140v1686h-249v-1686h-140v988q-122 0 -220 51t-153 140t-55 191.5z" />
<glyph unicode="&#xb8;" horiz-adv-x="455" d="M10 -395l37 92q68 -29 121.5 -29t92 16t38.5 46.5t-26.5 48.5t-65 18t-88.5 -16l-35 57l125 162h86l-86 -111l4 -4q23 17 67 17t84 -18q89 -38 89 -133.5t-76.5 -140t-169 -44.5t-197.5 39z" />
<glyph unicode="&#xb9;" horiz-adv-x="682" d="M135 1217v102q242 4 273 147h102v-886h-139v637h-236z" />
<glyph unicode="&#xba;" horiz-adv-x="786" d="M51 1122q0 151 89 246q92 98 266 98q97 0 174 -45q155 -91 155 -299q0 -209 -155 -294q-76 -42 -185 -42q-160 0 -252 93t-92 243zM190 1122q0 -100 51 -166.5t154 -66.5q135 0 180 113q21 53 21 118q0 137 -60 190.5t-130.5 53.5t-115.5 -26q-100 -58 -100 -216z" />
<glyph unicode="&#xbb;" horiz-adv-x="948" d="M133 236v178l205 161l-205 162v176l311 -247v-183zM535 236v178l204 161l-204 162v176l311 -247v-183z" />
<glyph unicode="&#xbc;" horiz-adv-x="1708" d="M74 1217v102q241 0 272 147h103v-886h-140v637h-235zM307 -57l891 1556h131l-891 -1556h-131zM946 199v120l430 568h105v-574h123v-114h-123v-199h-127v199h-408zM1047 313h307v398h-4z" />
<glyph unicode="&#xbd;" horiz-adv-x="1708" d="M74 1217v102q241 0 272 147h103v-886h-140v637h-235zM276 -57l891 1556h131l-890 -1556h-132zM1012 0q7 176 122 270q49 40 139 93t136 87q96 71 96 179q0 63 -49.5 104t-128 41t-119.5 -57.5t-41 -147.5h-139q0 143 86 230.5t227 87.5q180 0 263 -121q41 -59 41 -135 t-31.5 -131t-78.5 -92t-115.5 -77t-127.5 -76t-94.5 -68t-46.5 -72h481v-115h-620z" />
<glyph unicode="&#xbe;" horiz-adv-x="1708" d="M100 856h140q2 -86 50.5 -132t119.5 -46t114 18q97 42 97 127.5t-55 124.5t-136 39h-68v103h50q75 0 122.5 33t47.5 88t-21 84q-43 59 -129.5 59t-129 -49t-42.5 -129h-139q8 136 88 213t215 77q182 0 258 -108q39 -55 39 -121.5t-41 -116t-98 -71.5v-5q87 -16 132.5 -72 t45.5 -140.5t-46 -145.5q-90 -121 -286 -121q-142 0 -233 75q-95 78 -95 216zM440 -57l891 1556h131l-891 -1556h-131zM981 199v120l430 568h105v-574h122v-114h-122v-199h-127v199h-408zM1083 303h308v399h-5z" />
<glyph unicode="&#xbf;" d="M139 -20q0 153 100 272q24 28 84.5 87.5t91.5 94.5q79 87 79 203v63h174v-79q0 -138 -84 -237q-30 -36 -93.5 -101t-92.5 -99q-74 -89 -74 -221q7 -112 73 -177t190 -65t196.5 94.5t72.5 245.5h174q0 -141 -55.5 -254t-159 -177t-244.5 -64q-193 0 -312.5 110t-119.5 304 zM463 840v229h227v-229h-227z" />
<glyph unicode="&#xc0;" horiz-adv-x="1327" d="M-14 0l571 1477h215l571 -1477h-215l-159 444h-619l-164 -444h-200zM389 1878h223l176 -295h-131zM412 610h495l-243 688h-5z" />
<glyph unicode="&#xc1;" horiz-adv-x="1327" d="M-14 0l571 1477h215l571 -1477h-215l-159 444h-619l-164 -444h-200zM412 610h495l-243 688h-5zM539 1583l176 295h223l-268 -295h-131z" />
<glyph unicode="&#xc2;" horiz-adv-x="1327" d="M-14 0l571 1477h215l571 -1477h-215l-159 444h-619l-164 -444h-200zM356 1583l211 295h191l213 -295h-172l-142 199l-143 -199h-158zM412 610h495l-243 688h-5z" />
<glyph unicode="&#xc3;" horiz-adv-x="1327" d="M-14 0l571 1477h215l571 -1477h-215l-159 444h-619l-164 -444h-200zM317 1602q30 109 77.5 168t137.5 59q56 0 150 -41t137 -41q68 0 94 90h107q-12 -88 -64 -166q-55 -63 -161 -63q-38 0 -115.5 31t-104 40t-58 9t-62.5 -24.5t-31 -61.5h-107zM412 610h495l-243 688h-5z " />
<glyph unicode="&#xc4;" horiz-adv-x="1327" d="M-14 0l571 1477h215l571 -1477h-215l-159 444h-619l-164 -444h-200zM379 1591v215h184v-215h-184zM412 610h495l-243 688h-5zM764 1591v215h184v-215h-184z" />
<glyph unicode="&#xc5;" horiz-adv-x="1327" d="M-14 0l571 1477h215l571 -1477h-215l-159 444h-619l-164 -444h-200zM412 610h495l-243 688h-5zM432 1737q0 62 31 115.5t85 85.5t116 32t115 -31.5t84.5 -85t31.5 -133t-68 -149.5t-162.5 -70t-163.5 70t-69 166zM524 1737q0 -58 41 -100t98.5 -42t98.5 41t41 90t-19 81 q-39 69 -109 69t-110.5 -40.5t-40.5 -98.5z" />
<glyph unicode="&#xc6;" horiz-adv-x="1896" d="M-14 0l739 1477h1096v-166h-719v-469h676v-166h-676v-510h731v-166h-915v430h-504l-209 -430h-219zM489 596h429v715h-84z" />
<glyph unicode="&#xc7;" horiz-adv-x="1479" d="M88 704.5q0 192.5 45.5 334.5t134.5 248q188 224 512 224q328 0 496 -217q84 -109 106 -262h-194q-41 204 -222 280q-86 36 -188 36q-166 0 -277.5 -82.5t-164.5 -218t-53 -281.5t29.5 -258.5t90.5 -197.5q130 -179 377 -179q125 0 218 55q185 110 204 371h195 q-26 -277 -191 -433q-166 -159 -442 -159q-220 0 -372 100t-228 273.5t-76 366zM522 -395l37 92q68 -29 121.5 -29t92 16t38.5 46.5t-26.5 48.5t-65 18t-88.5 -16l-35 57l125 162h86l-86 -111l4 -4q23 17 67 17t84 -18q89 -38 89 -133.5t-76.5 -140t-169 -44.5t-197.5 39z " />
<glyph unicode="&#xc8;" horiz-adv-x="1251" d="M160 0v1477h1009v-166h-815v-469h760v-166h-760v-510h822v-166h-1016zM352 1878h223l177 -295h-131z" />
<glyph unicode="&#xc9;" horiz-adv-x="1251" d="M160 0v1477h1009v-166h-815v-469h760v-166h-760v-510h822v-166h-1016zM502 1583l176 295h223l-268 -295h-131z" />
<glyph unicode="&#xca;" horiz-adv-x="1251" d="M160 0v1477h1009v-166h-815v-469h760v-166h-760v-510h822v-166h-1016zM319 1583l211 295h191l213 -295h-172l-141 199l-144 -199h-158z" />
<glyph unicode="&#xcb;" horiz-adv-x="1251" d="M160 0v1477h1009v-166h-815v-469h760v-166h-760v-510h822v-166h-1016zM342 1591v215h184v-215h-184zM727 1591v215h184v-215h-184z" />
<glyph unicode="&#xcc;" horiz-adv-x="530" d="M-8 1878h223l176 -295h-131zM168 0v1477h194v-1477h-194z" />
<glyph unicode="&#xcd;" horiz-adv-x="530" d="M141 1583l176 295h224l-269 -295h-131zM168 0v1477h194v-1477h-194z" />
<glyph unicode="&#xce;" horiz-adv-x="530" d="M-41 1583l211 295h190l213 -295h-172l-141 199l-143 -199h-158zM168 0v1477h194v-1477h-194z" />
<glyph unicode="&#xcf;" horiz-adv-x="530" d="M-18 1591v215h184v-215h-184zM168 0v1477h194v-1477h-194zM367 1591v215h184v-215h-184z" />
<glyph unicode="&#xd0;" horiz-adv-x="1442" d="M16 700v142h144v635h502q521 0 656 -394q46 -134 46 -309q0 -774 -702 -774h-502v700h-144zM354 166h324q101 0 209.5 38t195 167t86.5 391t-114 405.5t-373 143.5h-328v-469h439v-142h-439v-534z" />
<glyph unicode="&#xd1;" horiz-adv-x="1479" d="M158 0v1477h207l770 -1198h4v1198h184v-1477h-213l-764 1186h-4v-1186h-184zM393 1602q30 109 77.5 168t137.5 59q56 0 150 -41t137 -41q68 0 94 90h107q-14 -91 -64 -166q-57 -63 -162 -63q-39 0 -135 41q-106 39 -139.5 39t-64.5 -24.5t-31 -61.5h-107z" />
<glyph unicode="&#xd2;" horiz-adv-x="1556" d="M78 740q0 151 45 291t133.5 247.5t220.5 170t301.5 62.5t302.5 -62.5t221 -170.5q177 -216 177 -539q0 -322 -177 -539q-89 -109 -221.5 -172t-302 -63t-301.5 63t-220.5 171.5t-133.5 249t-45 291.5zM272 738q0 -156 54.5 -295t168.5 -225.5t263.5 -86.5t245.5 51 t159 139q121 169 121 418t-121 419q-134 190 -385 190q-169 0 -283.5 -87t-168.5 -227t-54 -296zM504 1878h223l176 -295h-131z" />
<glyph unicode="&#xd3;" horiz-adv-x="1556" d="M78 740q0 151 45 291t133.5 247.5t220.5 170t301.5 62.5t302.5 -62.5t221 -170.5q177 -216 177 -539q0 -322 -177 -539q-89 -109 -221.5 -172t-302 -63t-301.5 63t-220.5 171.5t-133.5 249t-45 291.5zM272 738q0 -156 54.5 -295t168.5 -225.5t263.5 -86.5t245.5 51 t159 139q121 169 121 418t-121 419q-134 190 -385 190q-169 0 -283.5 -87t-168.5 -227t-54 -296zM653 1583l176 295h224l-269 -295h-131z" />
<glyph unicode="&#xd4;" horiz-adv-x="1556" d="M78 740q0 151 45 291t133.5 247.5t220.5 170t301.5 62.5t302.5 -62.5t221 -170.5q177 -216 177 -539q0 -322 -177 -539q-89 -109 -221.5 -172t-302 -63t-301.5 63t-220.5 171.5t-133.5 249t-45 291.5zM272 738q0 -156 54.5 -295t168.5 -225.5t263.5 -86.5t245.5 51 t159 139q121 169 121 418t-121 419q-134 190 -385 190q-169 0 -283.5 -87t-168.5 -227t-54 -296zM471 1583l211 295h190l213 -295h-172l-141 199l-143 -199h-158z" />
<glyph unicode="&#xd5;" horiz-adv-x="1556" d="M78 740q0 151 45 291t133.5 247.5t220.5 170t301.5 62.5t302.5 -62.5t221 -170.5q177 -216 177 -539q0 -322 -177 -539q-89 -109 -221.5 -172t-302 -63t-301.5 63t-220.5 171.5t-133.5 249t-45 291.5zM272 738q0 -156 54.5 -295t168.5 -225.5t263.5 -86.5t245.5 51 t159 139q121 169 121 418t-121 419q-134 190 -385 190q-169 0 -283.5 -87t-168.5 -227t-54 -296zM432 1602q30 109 77.5 168t137.5 59q56 0 150 -41t137 -41q68 0 94 90h107q-14 -91 -64 -166q-57 -63 -162 -63q-39 0 -135 41q-106 39 -139.5 39t-64.5 -24.5t-31 -61.5h-107 z" />
<glyph unicode="&#xd6;" horiz-adv-x="1556" d="M78 740q0 151 45 291t133.5 247.5t220.5 170t301.5 62.5t302.5 -62.5t221 -170.5q177 -216 177 -539q0 -322 -177 -539q-89 -109 -221.5 -172t-302 -63t-301.5 63t-220.5 171.5t-133.5 249t-45 291.5zM272 738q0 -156 54.5 -295t168.5 -225.5t263.5 -86.5t245.5 51 t159 139q121 169 121 418t-121 419q-134 190 -385 190q-169 0 -283.5 -87t-168.5 -227t-54 -296zM494 1591v215h184v-215h-184zM879 1591v215h184v-215h-184z" />
<glyph unicode="&#xd7;" horiz-adv-x="1229" d="M145 150l373 376l-371 371l99 100l370 -372l369 372l98 -100l-368 -371l370 -376l-98 -101l-371 377l-372 -377z" />
<glyph unicode="&#xd8;" horiz-adv-x="1556" d="M76 20l172 191q-170 213 -170 528q0 323 178 539q89 108 221 170.5t301 62.5q298 0 475 -182l162 180l66 -61l-168 -186q166 -218 166 -523q0 -322 -177 -539q-89 -109 -221.5 -172t-302.5 -63q-286 0 -469 178l-166 -184zM272 762q0 -250 103 -410l755 842 q-131 154 -352 154q-169 0 -283.5 -87t-168.5 -227t-54 -272zM430 276q129 -145 348 -145q249 0 385 190q121 169 121 418q0 227 -98 379z" />
<glyph unicode="&#xd9;" horiz-adv-x="1479" d="M152 535v942h194v-942q0 -195 106 -299.5t295.5 -104.5t287.5 104t98 300v942h194v-942q0 -374 -265 -505q-130 -65 -316 -65t-320 61q-274 125 -274 509zM465 1878h223l176 -295h-131z" />
<glyph unicode="&#xda;" horiz-adv-x="1479" d="M152 535v942h194v-942q0 -195 106 -299.5t295.5 -104.5t287.5 104t98 300v942h194v-942q0 -374 -265 -505q-130 -65 -316 -65t-320 61q-274 125 -274 509zM614 1583l177 295h223l-269 -295h-131z" />
<glyph unicode="&#xdb;" horiz-adv-x="1479" d="M152 535v942h194v-942q0 -195 106 -299.5t295.5 -104.5t287.5 104t98 300v942h194v-942q0 -374 -265 -505q-130 -65 -316 -65t-320 61q-274 125 -274 509zM432 1583l211 295h191l213 -295h-173l-141 199l-143 -199h-158z" />
<glyph unicode="&#xdc;" horiz-adv-x="1479" d="M152 535v942h194v-942q0 -195 106 -299.5t295.5 -104.5t287.5 104t98 300v942h194v-942q0 -374 -265 -505q-130 -65 -316 -65t-320 61q-274 125 -274 509zM455 1591v215h184v-215h-184zM840 1591v215h184v-215h-184z" />
<glyph unicode="&#xdd;" horiz-adv-x="1327" d="M4 1477h232l438 -703l428 703h221l-559 -873v-604h-195v604zM539 1583l176 295h223l-268 -295h-131z" />
<glyph unicode="&#xde;" horiz-adv-x="1327" d="M160 0v1477h194v-236h447q330 0 419 -253q29 -83 29 -185q0 -207 -115 -320.5t-333 -113.5h-447v-369h-194zM354 535h381q320 0 320 270t-320 270h-381v-540z" />
<glyph unicode="&#xdf;" d="M131 0v1098q0 123 50.5 216.5t142.5 145t205 51.5t210.5 -41.5t159.5 -123.5t62 -195q0 -251 -213 -322v-4q87 -10 151 -63q127 -107 127 -307q0 -213 -131.5 -346.5t-341.5 -133.5q-23 0 -88 9v153q22 -6 70 -6q139 0 223 83t84 214.5t-44.5 200t-125.5 91.5t-207 23 v140q311 0 311 239q0 64 -29.5 118t-82.5 86t-121.5 32t-122.5 -26q-115 -55 -115 -265v-1067h-174z" />
<glyph unicode="&#xe0;" horiz-adv-x="1100" d="M74 274q0 113 48.5 180t122.5 97t150.5 45.5t163 28t131.5 24.5q98 27 98 113q0 178 -235 178q-119 0 -188.5 -46t-75.5 -157h-174q8 186 137 277q116 80 311 80q110 0 197.5 -23t144 -88.5t56.5 -181.5v-551q0 -71 8.5 -95t40 -24t59.5 10v-137q-50 -29 -125 -29 q-147 0 -147 166q-141 -166 -373 -166q-155 0 -252.5 73.5t-97.5 225.5zM258 292.5q0 -84.5 57.5 -123t155 -38.5t171.5 37.5t109 93t35 111.5v180q-50 -38 -164.5 -52.5t-150.5 -21.5q-101 -18 -157 -60t-56 -126.5zM276 1511h224l176 -294h-131z" />
<glyph unicode="&#xe1;" horiz-adv-x="1100" d="M74 274q0 113 48.5 180t122.5 97t150.5 45.5t163 28t131.5 24.5q98 27 98 113q0 178 -235 178q-119 0 -188.5 -46t-75.5 -157h-174q8 186 137 277q116 80 311 80q110 0 197.5 -23t144 -88.5t56.5 -181.5v-551q0 -71 8.5 -95t40 -24t59.5 10v-137q-50 -29 -125 -29 q-147 0 -147 166q-141 -166 -373 -166q-155 0 -252.5 73.5t-97.5 225.5zM258 292.5q0 -84.5 57.5 -123t155 -38.5t171.5 37.5t109 93t35 111.5v180q-50 -38 -164.5 -52.5t-150.5 -21.5q-101 -18 -157 -60t-56 -126.5zM426 1217l176 294h223l-268 -294h-131z" />
<glyph unicode="&#xe2;" horiz-adv-x="1100" d="M74 274q0 113 48.5 180t122.5 97t150.5 45.5t163 28t131.5 24.5q98 27 98 113q0 178 -235 178q-119 0 -188.5 -46t-75.5 -157h-174q8 186 137 277q116 80 311 80q110 0 197.5 -23t144 -88.5t56.5 -181.5v-551q0 -71 8.5 -95t40 -24t59.5 10v-137q-50 -29 -125 -29 q-147 0 -147 166q-141 -166 -373 -166q-155 0 -252.5 73.5t-97.5 225.5zM244 1217l211 294h190l213 -294h-172l-141 198l-144 -198h-157zM258 292.5q0 -84.5 57.5 -123t155 -38.5t171.5 37.5t109 93t35 111.5v180q-50 -38 -164.5 -52.5t-150.5 -21.5q-101 -18 -157 -60 t-56 -126.5z" />
<glyph unicode="&#xe3;" horiz-adv-x="1100" d="M74 274q0 113 48.5 180t122.5 97t150.5 45.5t163 28t131.5 24.5q98 27 98 113q0 178 -235 178q-119 0 -188.5 -46t-75.5 -157h-174q8 186 137 277q116 80 311 80q110 0 197.5 -23t144 -88.5t56.5 -181.5v-551q0 -71 8.5 -95t40 -24t59.5 10v-137q-50 -29 -125 -29 q-147 0 -147 166q-141 -166 -373 -166q-155 0 -252.5 73.5t-97.5 225.5zM205 1235q29 107 77.5 167t122.5 60t168 -41t134 -41q65 0 94 90h106q-12 -88 -63 -165q-57 -64 -162 -64q-35 0 -112 31q-125 49 -160.5 49t-67 -25t-31.5 -61h-106zM258 292.5q0 -84.5 57.5 -123 t155 -38.5t171.5 37.5t109 93t35 111.5v180q-50 -38 -164.5 -52.5t-150.5 -21.5q-101 -18 -157 -60t-56 -126.5z" />
<glyph unicode="&#xe4;" horiz-adv-x="1100" d="M74 274q0 113 48.5 180t122.5 97t150.5 45.5t163 28t131.5 24.5q98 27 98 113q0 178 -235 178q-119 0 -188.5 -46t-75.5 -157h-174q8 186 137 277q116 80 311 80q110 0 197.5 -23t144 -88.5t56.5 -181.5v-551q0 -71 8.5 -95t40 -24t59.5 10v-137q-50 -29 -125 -29 q-147 0 -147 166q-141 -166 -373 -166q-155 0 -252.5 73.5t-97.5 225.5zM258 292.5q0 -84.5 57.5 -123t155 -38.5t171.5 37.5t109 93t35 111.5v180q-50 -38 -164.5 -52.5t-150.5 -21.5q-101 -18 -157 -60t-56 -126.5zM266 1225v215h185v-215h-185zM651 1225v215h185v-215 h-185z" />
<glyph unicode="&#xe5;" horiz-adv-x="1100" d="M74 274q0 113 48.5 180t122.5 97t150.5 45.5t163 28t131.5 24.5q98 27 98 113q0 178 -235 178q-119 0 -188.5 -46t-75.5 -157h-174q8 186 137 277q116 80 311 80q110 0 197.5 -23t144 -88.5t56.5 -181.5v-551q0 -71 8.5 -95t40 -24t59.5 10v-137q-50 -29 -125 -29 q-147 0 -147 166q-141 -166 -373 -166q-155 0 -252.5 73.5t-97.5 225.5zM258 292.5q0 -84.5 57.5 -123t155 -38.5t171.5 37.5t109 93t35 111.5v180q-50 -38 -164.5 -52.5t-150.5 -21.5q-101 -18 -157 -60t-56 -126.5zM319 1369.5q0 61.5 31.5 116.5t85 86.5t115.5 31.5 t115 -31.5t84.5 -85.5t31.5 -117.5t-31.5 -117.5t-84.5 -85.5t-115 -31.5t-116 32t-85 86.5t-31 116zM412 1370q0 -59 40 -100t99 -41t99 41t40 100t-40 99t-99 40t-99 -40t-40 -99z" />
<glyph unicode="&#xe6;" horiz-adv-x="1782" d="M74 274q0 113 48.5 180t122.5 97t189.5 52t181 34.5t101.5 24.5q76 25 76 117.5t-65 126.5t-179.5 34t-184 -46t-75.5 -157h-174q8 186 137 277q116 80 311 80q282 0 355 -154q100 154 337 154q174 0 281 -80q197 -148 197 -533h-777q0 -210 144 -303q72 -47 172.5 -47 t173.5 53.5t96 153.5h178q-51 -233 -246 -320q-94 -43 -212 -43q-292 0 -383 209q-59 -107 -176.5 -158t-274.5 -51t-255.5 73.5t-98.5 225.5zM258 292.5q0 -84.5 57.5 -123t155 -38.5t173 37.5t112.5 94t37 110.5v180q-32 -22 -78.5 -33t-139.5 -25t-104 -16 q-101 -18 -157 -60t-56 -126.5zM956 637h592q-1 82 -36.5 152.5t-101.5 110.5t-156 40t-158 -40q-140 -81 -140 -263z" />
<glyph unicode="&#xe7;" horiz-adv-x="1100" d="M74 522q0 253 126 408q133 164 373 164q190 0 315 -92t142 -275h-180q-20 101 -88 157t-174 56q-175 0 -252.5 -117.5t-77.5 -300.5q0 -231 134 -336q70 -55 184 -55t189.5 68.5t92.5 191.5h178q-29 -198 -148.5 -307t-318.5 -109q-236 0 -365.5 150.5t-129.5 396.5z M334 -395l37 92q66 -29 120.5 -29t93 16t38.5 46.5t-27.5 48.5t-65.5 18t-88 -16l-34 57l124 162h86l-86 -111l5 -4q23 17 66.5 17t84.5 -18q88 -38 88 -133.5t-76.5 -140t-169.5 -44.5t-196 39z" />
<glyph unicode="&#xe8;" horiz-adv-x="1100" d="M74 539q0 157 63.5 284t177.5 199t250.5 72t229 -52.5t148.5 -139.5q108 -169 108 -421h-793q0 -153 84.5 -251.5t245.5 -98.5q107 0 179.5 53t94.5 156h172q-34 -175 -153 -270t-291 -95t-284 71q-221 139 -232 493zM258 637h608q-11 179 -152 263q-69 40 -155.5 40 t-153 -41t-104 -110.5t-43.5 -151.5zM276 1511h224l176 -294h-131z" />
<glyph unicode="&#xe9;" horiz-adv-x="1100" d="M74 539q0 157 63.5 284t177.5 199t250.5 72t229 -52.5t148.5 -139.5q108 -169 108 -421h-793q0 -153 84.5 -251.5t245.5 -98.5q107 0 179.5 53t94.5 156h172q-34 -175 -153 -270t-291 -95t-284 71q-221 139 -232 493zM258 637h608q-11 179 -152 263q-69 40 -155.5 40 t-153 -41t-104 -110.5t-43.5 -151.5zM426 1217l176 294h223l-268 -294h-131z" />
<glyph unicode="&#xea;" horiz-adv-x="1100" d="M74 539q0 157 63.5 284t177.5 199t250.5 72t229 -52.5t148.5 -139.5q108 -169 108 -421h-793q0 -153 84.5 -251.5t245.5 -98.5q107 0 179.5 53t94.5 156h172q-34 -175 -153 -270t-291 -95t-284 71q-221 139 -232 493zM244 1217l211 294h190l213 -294h-172l-141 198 l-144 -198h-157zM258 637h608q-11 179 -152 263q-69 40 -155.5 40t-153 -41t-104 -110.5t-43.5 -151.5z" />
<glyph unicode="&#xeb;" horiz-adv-x="1100" d="M74 539q0 157 63.5 284t177.5 199t250.5 72t229 -52.5t148.5 -139.5q108 -169 108 -421h-793q0 -153 84.5 -251.5t245.5 -98.5q107 0 179.5 53t94.5 156h172q-34 -175 -153 -270t-291 -95t-284 71q-221 139 -232 493zM258 637h608q-11 179 -152 263q-69 40 -155.5 40 t-153 -41t-104 -110.5t-43.5 -151.5zM266 1225v215h185v-215h-185zM651 1225v215h185v-215h-185z" />
<glyph unicode="&#xec;" horiz-adv-x="455" d="M-47 1511h223l176 -294h-131zM141 0v1069h174v-1069h-174z" />
<glyph unicode="&#xed;" horiz-adv-x="455" d="M102 1217l177 294h223l-269 -294h-131zM141 0v1069h174v-1069h-174z" />
<glyph unicode="&#xee;" horiz-adv-x="455" d="M-80 1217l211 294h191l213 -294h-173l-141 198l-143 -198h-158zM141 0v1069h174v-1069h-174z" />
<glyph unicode="&#xef;" horiz-adv-x="455" d="M-57 1225v215h184v-215h-184zM141 0v1069h174v-1069h-174zM328 1225v215h184v-215h-184z" />
<glyph unicode="&#xf0;" horiz-adv-x="1176" d="M74 507.5q0 129.5 32.5 222.5t94.5 164q134 153 356 153q184 0 285 -115h4q-42 92 -119.5 183t-130.5 128l-236 -113l-77 84l223 105q-55 50 -144 100l144 92q126 -89 158 -114l245 114l72 -75l-236 -111q357 -295 357 -790q0 -157 -59.5 -285.5t-175.5 -201.5t-279 -73 t-279 73t-175.5 201.5t-59.5 258zM258 552q0 -144 44 -235.5t119.5 -138.5t166.5 -47t166.5 47t119.5 138.5t44 204t-36 192.5t-113.5 129t-190.5 49q-153 0 -236.5 -97.5t-83.5 -241.5z" />
<glyph unicode="&#xf1;" d="M131 0v1069h164v-170h4q108 195 344 195q199 0 282 -101.5t83 -290.5v-702h-174v725q0 98 -57.5 156.5t-158.5 58.5q-152 0 -232.5 -92t-80.5 -244v-604h-174zM223 1235q29 107 77.5 167t123 60t168.5 -41t133 -41q67 0 94 90h107q-12 -86 -64 -165q-57 -64 -162 -64 q-35 0 -113.5 31t-105 40t-58 9t-62.5 -24.5t-31 -61.5h-107z" />
<glyph unicode="&#xf2;" horiz-adv-x="1176" d="M74 534.5q0 156.5 59.5 285t175.5 201.5t279 73t279 -73t175.5 -201.5t59.5 -285t-59.5 -285t-175.5 -201.5t-279 -73t-279 73t-175.5 201.5t-59.5 285zM258 535q0 -127 44 -218.5t119.5 -138.5t166.5 -47t166.5 47t119.5 138.5t44 218.5t-44 218.5t-119 139t-167 47.5 t-167 -47.5t-119 -139t-44 -218.5zM313 1511h224l176 -294h-131z" />
<glyph unicode="&#xf3;" horiz-adv-x="1176" d="M74 534.5q0 156.5 59.5 285t175.5 201.5t279 73t279 -73t175.5 -201.5t59.5 -285t-59.5 -285t-175.5 -201.5t-279 -73t-279 73t-175.5 201.5t-59.5 285zM258 535q0 -127 44 -218.5t119.5 -138.5t166.5 -47t166.5 47t119.5 138.5t44 218.5t-44 218.5t-119 139t-167 47.5 t-167 -47.5t-119 -139t-44 -218.5zM463 1217l176 294h223l-268 -294h-131z" />
<glyph unicode="&#xf4;" horiz-adv-x="1176" d="M74 534.5q0 156.5 59.5 285t175.5 201.5t279 73t279 -73t175.5 -201.5t59.5 -285t-59.5 -285t-175.5 -201.5t-279 -73t-279 73t-175.5 201.5t-59.5 285zM258 535q0 -127 44 -218.5t119.5 -138.5t166.5 -47t166.5 47t119.5 138.5t44 218.5t-44 218.5t-119 139t-167 47.5 t-167 -47.5t-119 -139t-44 -218.5zM281 1217l211 294h190l213 -294h-172l-141 198l-144 -198h-157z" />
<glyph unicode="&#xf5;" horiz-adv-x="1176" d="M74 534.5q0 156.5 59.5 285t175.5 201.5t279 73t279 -73t175.5 -201.5t59.5 -285t-59.5 -285t-175.5 -201.5t-279 -73t-279 73t-175.5 201.5t-59.5 285zM242 1235q27 104 77 165.5t123.5 61.5t167.5 -41t133 -41q66 0 95 90h106q-12 -85 -63 -165q-57 -64 -162 -64 q-35 0 -135 41q-106 39 -140 39t-65 -24.5t-31 -61.5h-106zM258 535q0 -127 44 -218.5t119.5 -138.5t166.5 -47t166.5 47t119.5 138.5t44 218.5t-44 218.5t-119 139t-167 47.5t-167 -47.5t-119 -139t-44 -218.5z" />
<glyph unicode="&#xf6;" horiz-adv-x="1176" d="M74 534.5q0 156.5 59.5 285t175.5 201.5t279 73t279 -73t175.5 -201.5t59.5 -285t-59.5 -285t-175.5 -201.5t-279 -73t-279 73t-175.5 201.5t-59.5 285zM258 535q0 -127 44 -218.5t119.5 -138.5t166.5 -47t166.5 47t119.5 138.5t44 218.5t-44 218.5t-119 139t-167 47.5 t-167 -47.5t-119 -139t-44 -218.5zM303 1225v215h184v-215h-184zM688 1225v215h184v-215h-184z" />
<glyph unicode="&#xf7;" horiz-adv-x="1229" d="M98 453v141h1032v-141h-1032zM483 97.5q0 52.5 39.5 92t92.5 39.5t91.5 -39.5t38.5 -91t-40 -92.5t-91 -41t-91 40t-40 92.5zM483 960q0 44 39.5 82.5t92 38.5t91.5 -39t39 -91t-40 -93t-81.5 -41t-72.5 18.5t-49.5 49.5t-18.5 75z" />
<glyph unicode="&#xf8;" horiz-adv-x="1176" d="M70 4l127 143q-123 153 -123 388q0 156 59.5 284.5t175.5 201.5t279 73q211 0 344 -121l119 133l55 -53l-123 -138q119 -148 119 -380q0 -157 -59.5 -285.5t-175.5 -201.5t-279 -73q-204 0 -338 117l-123 -137zM258 528q0 -134 61 -245l496 559q-92 98 -227 98 q-92 0 -167 -47.5t-119 -139t-44 -225.5zM365 223q92 -92 223 -92q91 0 166.5 47t119.5 138.5t44 225.5t-58 238z" />
<glyph unicode="&#xf9;" d="M131 367v702h174v-723q0 -97 58 -156t157 -59q154 0 234 91.5t80 242.5v604h174v-1069h-164v170h-4q-108 -195 -344 -195q-285 0 -346 232q-19 72 -19 160zM295 1511h223l176 -294h-131z" />
<glyph unicode="&#xfa;" d="M131 367v702h174v-723q0 -97 58 -156t157 -59q154 0 234 91.5t80 242.5v604h174v-1069h-164v170h-4q-108 -195 -344 -195q-285 0 -346 232q-19 72 -19 160zM444 1217l177 294h223l-269 -294h-131z" />
<glyph unicode="&#xfb;" d="M131 367v702h174v-723q0 -97 58 -156t157 -59q154 0 234 91.5t80 242.5v604h174v-1069h-164v170h-4q-108 -195 -344 -195q-285 0 -346 232q-19 72 -19 160zM262 1217l211 294h191l213 -294h-172l-142 198l-143 -198h-158z" />
<glyph unicode="&#xfc;" d="M131 367v702h174v-723q0 -97 58 -156t157 -59q154 0 234 91.5t80 242.5v604h174v-1069h-164v170h-4q-108 -195 -344 -195q-285 0 -346 232q-19 72 -19 160zM285 1225v215h184v-215h-184zM670 1225v215h184v-215h-184z" />
<glyph unicode="&#xfd;" horiz-adv-x="1024" d="M16 1069h197l309 -874h4l297 874h185l-461 -1212q-44 -111 -83.5 -170.5t-92 -87t-127.5 -27.5t-125 18v162q79 -24 102 -24q93 0 144 96l71 182zM387 1217l176 294h223l-268 -294h-131z" />
<glyph unicode="&#xfe;" horiz-adv-x="1214" d="M137 -410v1887h174v-553h4q42 86 133 128t207.5 42t209 -44t153.5 -122q123 -155 123 -396q0 -154 -54.5 -281.5t-164.5 -201.5t-265 -74q-137 0 -247 71q-57 36 -95 97h-4v-553h-174zM305 537q0 -244 145 -351q74 -55 187.5 -55t185 57.5t102.5 152t31 202t-36 197 t-109 145t-182 55.5q-163 0 -243.5 -118t-80.5 -285z" />
<glyph unicode="&#xff;" horiz-adv-x="1024" d="M16 1069h197l309 -874h4l297 874h185l-461 -1212q-44 -111 -83.5 -170.5t-92 -87t-127.5 -27.5t-125 18v162q79 -24 102 -24q93 0 144 96l71 182zM227 1225v215h185v-215h-185zM612 1225v215h185v-215h-185z" />
<glyph unicode="&#x152;" horiz-adv-x="2200" d="M78 736.5q0 220.5 81.5 398t237 277t367.5 99.5q110 0 215 -40.5t145 -114.5h4v121h977v-166h-782v-469h717v-166h-717v-510h795v-166h-990v143h-4q-50 -82 -155 -130t-221 -48q-210 0 -361.5 100t-230 275.5t-78.5 396zM272 729.5q0 -168.5 56.5 -305t166.5 -215 t267 -78.5q102 0 185.5 37.5t132 104.5t48.5 149v622q0 97 -30 143t-79 82q-108 79 -260.5 79t-264 -84t-167 -225t-55.5 -309.5z" />
<glyph unicode="&#x153;" horiz-adv-x="1825" d="M74 537q0 157 53 284t161 200t253.5 73t238.5 -42t142 -147q53 92 154 140.5t221.5 48.5t211 -42t149.5 -116q114 -145 114 -395q0 -41 -3 -60h-768q0 -152 80.5 -251t225.5 -99q104 0 180 55t106 154h166q-103 -365 -452 -365q-295 0 -385 211q-90 -211 -367 -211 q-237 0 -359 159t-122 403zM258 512q0 -152 73.5 -266.5t223.5 -114.5q160 0 233 129q62 107 62 279q0 401 -295 401q-106 0 -172 -60q-125 -114 -125 -368zM1001 637h584q0 138 -77 220.5t-212 82.5t-215 -84t-80 -219z" />
<glyph unicode="&#x178;" horiz-adv-x="1327" d="M4 1477h232l438 -703l428 703h221l-559 -873v-604h-195v604zM379 1591v215h184v-215h-184zM764 1591v215h184v-215h-184z" />
<glyph unicode="&#x2c6;" horiz-adv-x="455" d="M-80 1217l211 294h191l213 -294h-173l-141 198l-143 -198h-158z" />
<glyph unicode="&#x2dc;" horiz-adv-x="455" d="M-119 1235q29 107 77.5 167t123 60t168.5 -41t133 -41q67 0 94 90h107q-14 -89 -64 -165q-57 -64 -162 -64q-35 0 -113.5 31t-105 40t-58 9t-62.5 -24.5t-31 -61.5h-107z" />
<glyph unicode="&#x2000;" horiz-adv-x="985" />
<glyph unicode="&#x2001;" horiz-adv-x="1970" />
<glyph unicode="&#x2002;" horiz-adv-x="985" />
<glyph unicode="&#x2003;" horiz-adv-x="1970" />
<glyph unicode="&#x2004;" horiz-adv-x="656" />
<glyph unicode="&#x2005;" horiz-adv-x="492" />
<glyph unicode="&#x2006;" horiz-adv-x="328" />
<glyph unicode="&#x2007;" horiz-adv-x="328" />
<glyph unicode="&#x2008;" horiz-adv-x="246" />
<glyph unicode="&#x2009;" horiz-adv-x="394" />
<glyph unicode="&#x200a;" horiz-adv-x="109" />
<glyph unicode="&#x2010;" horiz-adv-x="797" d="M102 492v165h592v-165h-592z" />
<glyph unicode="&#x2011;" horiz-adv-x="797" d="M102 492v165h592v-165h-592z" />
<glyph unicode="&#x2012;" horiz-adv-x="797" d="M102 492v165h592v-165h-592z" />
<glyph unicode="&#x2013;" horiz-adv-x="1024" d="M0 492v165h1024v-165h-1024z" />
<glyph unicode="&#x2014;" horiz-adv-x="2048" d="M0 492v165h2048v-165h-2048z" />
<glyph unicode="&#x2018;" horiz-adv-x="569" d="M172 944v230q0 130 56 216.5t169 86.5v-103q-63 0 -90.5 -59t-27.5 -141h120v-230h-227z" />
<glyph unicode="&#x2019;" horiz-adv-x="569" d="M170 1247v230h227v-230q0 -132 -57 -217.5t-168 -85.5v103q63 0 91 59t28 141h-121z" />
<glyph unicode="&#x201a;" horiz-adv-x="569" d="M170 0v229h227v-229q0 -132 -57 -217.5t-168 -85.5v102q63 0 91 59.5t28 141.5h-121z" />
<glyph unicode="&#x201c;" horiz-adv-x="872" d="M135 944v230q0 130 56 216.5t169 86.5v-103q-63 0 -90.5 -59t-27.5 -141h120v-230h-227zM510 944v230q0 130 56 216.5t169 86.5v-103q-64 0 -91.5 -59t-27.5 -141h121v-230h-227z" />
<glyph unicode="&#x201d;" horiz-adv-x="872" d="M135 1247v230h227v-230q0 -132 -57 -217.5t-168 -85.5v103q63 0 91 59t28 141h-121zM510 1247v230h227v-230q0 -132 -57 -217.5t-168 -85.5v103q63 0 91 59t28 141h-121z" />
<glyph unicode="&#x201e;" horiz-adv-x="872" d="M135 0v229h227v-229q0 -132 -57 -217.5t-168 -85.5v102q63 0 91 59.5t28 141.5h-121zM510 0v229h227v-229q0 -132 -57 -217.5t-168 -85.5v102q63 0 91 59.5t28 141.5h-121z" />
<glyph unicode="&#x2022;" horiz-adv-x="1024" d="M147 739q0 99 48.5 184.5t133 134t171.5 48.5t155.5 -29t118.5 -79q105 -107 105 -259q0 -100 -49.5 -185.5t-133 -135t-184 -49.5t-184 49.5t-132.5 135.5t-49 185z" />
<glyph unicode="&#x2026;" horiz-adv-x="2048" d="M227 0v229h228v-229h-228zM909 0v229h228v-229h-228zM1591 0v229h228v-229h-228z" />
<glyph unicode="&#x202f;" horiz-adv-x="394" />
<glyph unicode="&#x2039;" horiz-adv-x="530" d="M102 483v183l312 247v-176l-205 -162l205 -161v-178z" />
<glyph unicode="&#x203a;" horiz-adv-x="530" d="M117 236v178l205 161l-205 162v176l311 -247v-183z" />
<glyph unicode="&#x205f;" horiz-adv-x="492" />
<glyph unicode="&#x2122;" horiz-adv-x="2028" d="M131 1364v113h668v-113h-264v-739h-140v739h-264zM971 625v852h215l252 -648l248 648h212v-852h-139v710h-4l-276 -710h-88l-277 710h-4v-710h-139z" />
<glyph unicode="&#xe000;" horiz-adv-x="1070" d="M0 0v1070h1070v-1070h-1070z" />
</font>
</defs>
</svg>
